2013Zone For Latest Downloads

 
     
 
Legal Downloads » Music » Arabesque - Dance Dance Dance (1983) [2015, Victor Entertainment Japan, VICY-768]
Menu
Home Applications
Games Movies
Music TV Shows
Torrents Graphics

Sitemap

RSS
 
Advanced Search
Last News
Site Info
Top Contributors:
  1    supper88 32767
  2    admin 32760
  3    Whisky 10081
  4    Shark_ 8911
  5    creativelivenew 8706
  6    whathesupa 2799
  7    candymypost 840
  8    hvnteam 629
  9    vuong87 3


Articles:
  This Hour: 0
  Today: 0
  This Month: 4
  All Time: 515460


Torrents:
  Today: 0
  Yesterday: 0
  All Time: 156743


Membership:
  Registered Today :0
  This Hour:0
  This Month:0
  Total:14
  Banned:1

{online}
{inform_torrent}
Friend:
Full Download Scripts
Torrent Download
Trend
Trend

Search In Site

Music : Arabesque - Dance Dance Dance (1983) [2015, Victor Entertainment Japan, VICY-768]
 
http://i66.fastpic.ru/big/2015/0322/07/6e5a542ba404edc0a32ef252370db907.jpg

Arabesque - Dance Dance Dance (1983)
EAC | Flac(Image) + Cue + Log & MP3 CBR 320Kbps
Victor Entertainment Japan, VICY-768 | ~ 258 or 103 Mb | Scans(png) -> 128 Mb
Disco

"The all-girl trio Arabesque was created by two Frankfurt-based German producers at the height of the disco era in 1977. After one album and a few singles that had found surprising success in Japan, the producers changed the lineup, keeping Michaela Rose and replacing the two other girls with Jasmin Vetter and Sandra Lauer. Vetter, a former gymnast, also became the trio's choreographer and Lauer, soon to be billed simply as Sandra, assumed the position of a lead vocalist..."

Arabesque - Dance Dance Dance (1983):

http://i68.fastpic.ru/big/2015/0322/61/73f579420e31bc8eb79b1846436ed961.jpg

Tracklist:

01. Loser Pays The Piper 03:21
02. Heart On Fire 03:37
03. Pack It Up 03:43
04. For Your Smile 02:55
05. Sunrise In Your Eyes 03:18
06. Dance Dance Dance 03:10
07. Angel Face 03:15
08. You Better Get A Move On 02:53
09. Stupid Boys 03:06
10. Bye Bye Superman 03:23

Exact Audio Copy V1.0 beta 4 from 7. December 2014

EAC extraction logfile from 6. March 2015, 21:09

Arabesque / Dance Dance Dance

Used drive : PLEXTOR BD-R PX-B950SA Adapter: 1 ID: 1

Read mode : Secure
Utilize accurate stream : Yes
Defeat audio cache : Yes
Make use of C2 pointers : No

Read offset correction

: 6
Overread into Lead-In and Lead-Out : No
Fill up missing offset samples with silence : Yes
Delete leading and trailing silent blocks : No
Null samples used in CRC calculations : Yes
Used interface : Native Win32 interface for Win NT & 2000

Used output format : Internal WAV Routines
Sample format : 44.100 Hz; 16 Bit; Stereo

TOC of the extracted CD Track | Start | Length | Start sector | End sector
-----------
1 | 0:00.00 | 3:21.62 | 0 | 15136
2 | 3:21.62 | 3:37.48 | 15137 | 31459
3 | 6:59.35 | 3:43.57 | 31460 | 48241
4 | 10:43.17 | 2:55.20 | 48242 | 61386
5 | 13:38.37 | 3:18.40 | 61387 | 76276
6 | 16:57.02 | 3:10.20 | 76277 | 90546
7 | 20:07.22 | 3:15.33 | 90547 | 105204
8 | 23:22.55 | 2:53.42 | 105205 | 118221
9 | 26:16.22 | 3:06.33 | 118222 | 132204
10 | 29:22.55 | 3:23.62 | 132205 | 147491

Range status and errors

Selected range Filename C:\Users\Meijin\Desktop\ALLexxess\Arabesque\2015 Complete Box (10 Mini LP CD + DVD Victor Japan)\1983 Dance Dance Dance\Arabesque - Dance Dance Dance.wav Peak level 97.7 %
Extraction speed 6.2 X
Range quality 100.0 %
Test CRC 0E7E7203
Copy CRC 0E7E7203
Copy OK

No errors occurred


AccurateRip summary

Track 1 not present in database
Track 2 not present in database
Track 3 not present in database
Track 4 not present in database
Track 5 not present in database
Track 6 not present in database
Track 7 not present in database
Track 8 not present in database
Track 9 not present in database
Track 10 not present in database

None of the tracks are present in the AccurateRip database

End of status report

---- CUETools DB Plugin V2.1.4

[CTDB TOCID: .drnocbaYKX_6ZN82bf7vfEvfMg-] disk not present in database
Submit result: .drnocbaYKX_6ZN82bf7vfEvfMg- has been uploaded

==== Log checksum 599E8624420355EB57967DF91C78A74349B83432376457F042B4B6A1AF719943 ====

foobar2000 1.2.9 / Dynamic Range Meter 1.1.1
log date: 2015-03-16 11:15:15

--
Analyzed: Arabesque / Dance Dance Dance
--

DR Peak RMS Duration Track
--
DR10 -0.20 dB -10.70 dB 3:22 01-Loser Pays The Piper
DR10 -0.20 dB -11.87 dB 3:38 02-Heart On Fire
DR11 -0.20 dB -13.28 dB 3:44 03-Pack It Up
DR10 -0.20 dB -11.31 dB 2:55 04-For Your Smile
DR10 -0.20 dB -12.15 dB 3:19 05-Sunrise In Your Eyes
DR11 -0.20 dB -11.90 dB 3:10 06-Dance Dance Dance
DR11 -0.20 dB -12.55 dB 3:15 07-Angel Face
DR10 -0.20 dB -11.00 dB 2:54 08-You Better Get A Move On
DR11 -0.20 dB -11.95 dB 3:06 09-Stupid Boys
DR10 -0.20 dB -10.96 dB 3:24 10-Bye Bye Superman
--

Number of tracks: 10
Official DR value: DR10

Samplerate: 44100 Hz
Channels: 2
Bits per sample: 16
Bitrate: 985 kbps
Codec: FLAC

[CUETools log; Date: 20.03.2015 12:07:41; Version: 2.1.4]
[CTDB TOCID: .drnocbaYKX_6ZN82bf7vfEvfMg-] found.
Track | CTDB Status
1 | (1/1) Accurately ripped
2 | (1/1) Accurately ripped
3 | (1/1) Accurately ripped
4 | (1/1) Accurately ripped
5 | (1/1) Accurately ripped
6 | (1/1) Accurately ripped
7 | (1/1) Accurately ripped
8 | (1/1) Accurately ripped
9 | (1/1) Accurately ripped
10 | (1/1) Accurately ripped
[AccurateRip ID: 000c9b3e-00643105-6e07ae0a] disk not present in database.

Track Peak [ CRC32 ] [W/O NULL] [ LOG ]
-- 97,7 [0E7E7203] [E4F32151] CRC32
01 97,7 [C2516447] [1BF11487]
02 97,7 [D78F16DF] [3C1E59E4]
03 97,7 [F4C5715B] [5DAFDA0F]
04 97,7 [4418C732] [02461EC1]
05 97,7 [D6638BB6] [4B90BA0E]
06 97,7 [FA9A5522] [9B78F252]
07 97,7 [81952C4B] [F92F8F59]
08 97,7 [8FBBE527] [4B41537C]
09 97,7 [72B4F205] [231C2895]
10 97,7 [7648DFEA] [7D540C9F]

http://i60.fastpic.ru/big/2015/0322/4a/ef7b7e8ee4f0580041924cfe55dde24a.jpg

DOWNLOAD LINKS:
Buy Premium To Support Me & Get Resumable Support & Max Speed


Links are Interchangeable - No Password - Single Extraction

Arabesque - Dance Dance Dance (1983) [2015, Victor Entertainment Japan, VICY-768] Fast Download



 
 
 
Dear visitor, you went to the site as an unregistered user. We encourage you to register or enter the site under your name.
 
   
 
 (Votes #: 0)