2013Zone For Latest Downloads

 
     
 
Legal Downloads » Music » The Rolling Stones - More Hot Rocks (Big Hits & Fazed Cookies) 1 (1972) [Polydor, P25L 25049]
Menu
Home Applications
Games Movies
Music TV Shows
Torrents Graphics

Sitemap

RSS
 
Advanced Search
Last News
Site Info
Top Contributors:
  1    supper88 32766
  2    admin 32751
  3    Whisky 10080
  4    Shark_ 8911
  5    creativelivenew 8706
  6    whathesupa 2799
  7    candymypost 840
  8    hvnteam 629
  9    vuong87 3


Articles:
  This Hour: 0
  Today: 0
  This Month: 35
  All Time: 515454


Torrents:
  Today: 0
  Yesterday: 0
  All Time: 156715


Membership:
  Registered Today :0
  This Hour:0
  This Month:0
  Total:14
  Banned:1

{online}
{inform_torrent}
Friend:
Full Download Scripts
Torrent Download
Trend
Trend

Search In Site

Music : The Rolling Stones - More Hot Rocks (Big Hits & Fazed Cookies) 1 (1972) [Polydor, P25L 25049]
 
http://i57.fastpic.ru/big/2015/0325/3a/05942dd9a1e185d756ddf77a21f20b3a.jpg

The Rolling Stones - More Hot Rocks (Big Hits & Fazed Cookies) 1 (1972)
EAC | Flac(Image) + Cue + Log & MP3 CBR 320Kbps
1989 | Polydor, P25L 25049 | Japan | ~ 220 or 103 Mb | Scans(600dpi, jpg) -> 87 Mb
Blues Rock / Classic Rock

"Hot Rocks covers most of the monster hits from the Stones' first decade that remained in radio rotation for decades to come. More Hot Rocks goes for the somewhat smaller hits, some of the better album tracks, and a whole LP side's worth of rarities that hadn't yet been available in the United States when this compilation was released in 1972..."

The Rolling Stones - More Hot Rocks (Big Hits & Fazed Cookies) 1 (1972):

http://i57.fastpic.ru/big/2015/0325/09/59a75de850d01cb4bc6541dc36514d09.jpg

Tracklist:

1. Tell Me (You're Coming Back) (3:49)
2. Not Fade Away (1:50)
3. The Last Time (3:40)
4. No Expectations (4:01)
5. Child Of The Moon (3:09)
6. She's A Rainbow (4:07)
7. It's All Over Now (3:27)
8. Good Times, Bad Times (2:32)
9. I'm Free (2:25)
10. Out Of Time (3:43)
11. Poison Ivy (2:05)
12. Bye Bye Johnny (2:09)
13. Long Long While (3:01)

Exact Audio Copy V1.0 beta 3 from 29. August 2011

EAC extraction logfile from 8. April 2013, 22:36

The Rolling Stones / More Hot Rocks 1 (P25L-25049)

Used drive : PLEXTOR DVDR PX-891SA Adapter: 1 ID: 0

Read mode : Secure
Utilize accurate stream : Yes
Defeat audio cache : Yes
Make use of C2 pointers : No

Read offset correction

: 6
Overread into Lead-In and Lead-Out : No
Fill up missing offset samples with silence : Yes
Delete leading and trailing silent blocks : No
Null samples used in CRC calculations : Yes
Used interface : Native Win32 interface for Win NT & 2000

Used output format : User Defined Encoder
Selected bitrate : 1024 kBit/s
Quality : High
Add ID3 tag : No
Command line compressor : C:\Program Files\Exact Audio Copy\Flac\flac.exe
Additional command line options : -V -8 -T "Genre=%genre%" -T "Artist=%artist%" -T "Title=%title%" -T "Album=%albumtitle%" -T "Date=%year%" -T "Tracknumber=%tracknr%" -T "Comment=%comment%" %source%

TOC of the extracted CD Track | Start | Length | Start sector | End sector
-----------
1 | 0:00.37 | 3:53.70 | 37 | 17581
2 | 3:54.32 | 1:53.63 | 17582 | 26119
3 | 5:48.20 | 3:44.32 | 26120 | 42951
4 | 9:32.52 | 4:05.23 | 42952 | 61349
5 | 13:38.00 | 3:14.15 | 61350 | 75914
6 | 16:52.15 | 4:11.47 | 75915 | 94786
7 | 21:03.62 | 3:30.35 | 94787 | 110571
8 | 24:34.22 | 2:36.48 | 110572 | 122319
9 | 27:10.70 | 2:29.07 | 122320 | 133501
10 | 29:40.02 | 3:50.15 | 133502 | 150766
11 | 33:30.17 | 2:10.13 | 150767 | 160529
12 | 35:40.30 | 2:13.42 | 160530 | 170546
13 | 37:53.72 | 3:00.15 | 170547 | 184061

Range status and errors

Selected range Filename H:\dafnaplus\The Rolling Stones - More Hot Rocks 1 [Polydor P25L 25049]\The Rolling Stones - More Hot Rocks 1 (P25L-25049).wav Peak level 100.0 %
Extraction speed 7.8 X
Range quality 99.9 %
Test CRC CFA733B4
Copy CRC CFA733B4
Copy OK

No errors occurred


AccurateRip summary

Track 1 not present in database
Track 2 not present in database
Track 3 not present in database
Track 4 not present in database
Track 5 not present in database
Track 6 not present in database
Track 7 not present in database
Track 8 not present in database
Track 9 not present in database
Track 10 not present in database
Track 11 not present in database
Track 12 not present in database
Track 13 not present in database

None of the tracks are present in the AccurateRip database

End of status report

==== Log checksum 4C4373678D8C6C0216248C7038C13AAC58DA2D2FD90E5ABE0C15FCD1B0BBC102 ====

foobar2000 1.2.9 / Dynamic Range Meter 1.1.1
log date: 2015-03-23 13:02:05

--
Analyzed: The Rolling Stones / More Hot Rocks 1 (P25L-25049)
--

DR Peak RMS Duration Track
--
DR14 -0.73 dB -17.69 dB 3:54 01-Tell Me (You're Coming Back)
DR13 -0.76 dB -17.39 dB 1:54 02-Not Fade Away
DR10 -0.52 dB -12.36 dB 3:44 03-The Last Time
DR10 -2.44 dB -15.19 dB 4:05 04-No Expectations
DR12 -0.33 dB -14.32 dB 3:14 05-Child Of The Moon
DR11 -0.03 dB -15.34 dB 4:12 06-She's A Rainbow
DR12 -0.16 dB -13.47 dB 3:30 07-It's All Over Now
DR12 -0.24 dB -15.22 dB 2:37 08-Good Times, Bad Times
DR12 -0.38 dB -13.82 dB 2:29 09-I'm Free
DR12 -0.56 dB -15.38 dB 3:50 10-Out Of Time
DR10 0.00 dB -11.45 dB 2:10 11-Poison Ivy
DR9 -0.90 dB -11.38 dB 2:14 12-Bye Bye Johnny
DR12 -0.97 dB -15.35 dB 3:00 13-Long Long While
--

Number of tracks: 13
Official DR value: DR11

Samplerate: 44100 Hz
Channels: 2
Bits per sample: 16
Bitrate: 731 kbps
Codec: FLAC

[CUETools log; Date: 23.03.2015 13:02:39; Version: 2.1.4]
Pregap length 00:00:37.
[CTDB TOCID: UrwPXgYQx19BffduAogr84NhIy4-] found.
Track | CTDB Status
1 | (1/1) Accurately ripped
2 | (1/1) Accurately ripped
3 | (1/1) Accurately ripped
4 | (1/1) Accurately ripped
5 | (1/1) Accurately ripped
6 | (1/1) Accurately ripped
7 | (1/1) Accurately ripped
8 | (1/1) Accurately ripped
9 | (1/1) Accurately ripped
10 | (1/1) Accurately ripped
11 | (1/1) Accurately ripped
12 | (1/1) Accurately ripped
13 | (1/1) Accurately ripped
[AccurateRip ID: 00149d83-00cca042-9109960d] found.
Track [ CRC | V2 ] Status
01 [d792cb6b|06fdc2e9] (0+2/2) Accurately ripped
02 [08c100ae|21cf47f7] (0+2/2) Accurately ripped
03 [9a78c6a1|ee72bfc4] (0+2/2) Accurately ripped
04 [21b95d52|84dbd856] (0+2/2) Accurately ripped
05 [f92798ed|56841e79] (0+2/2) Accurately ripped
06 [626527fc|d792cdd5] (0+2/2) Accurately ripped
07 [cdfb54d7|a49d039d] (0+2/2) Accurately ripped
08 [9768bb21|2b80c6c5] (0+2/2) Accurately ripped
09 [70ce166a|188e664d] (0+2/2) Accurately ripped
10 [54a88215|e99112a2] (0+2/2) Accurately ripped
11 [22915e16|e31ac365] (0+2/2) Accurately ripped
12 [3da5a08e|8fbeff80] (0+2/2) Accurately ripped
13 [28617ad4|9c81df49] (0+2/2) Accurately ripped

Track Peak [ CRC32 ] [W/O NULL] [ LOG ]
-- 100,0 [CFA733B4] [2EBAAD57] CRC32
01 91,9 [E4AF6413] [D4EDBA30]
02 91,5 [E2A9DE77] [79048F43]
03 94,2 [AA26138B] [75B943F4]
04 75,5 C3484D2 [E7C4391E]
05 96,2 [9158FD75] [AD61339B]
06 99,6 [71A5C0DA] [F459AD3C]
07 98,1 [1490FC62] [2841BB96]
08 97,2 [9CD06AA2] [6A9352E5]
09 95,7 [9809A93F] [6024EE5E]
10 93,7 [4B469387] [319CAB20]
11 100,0 [5D469487] [180349C1]
12 90,1 [88C7917E] [DF684A8D]
13 89,3 [52B94FB3] [ABACB7CE]

http://i60.fastpic.ru/big/2015/0325/55/0254f1129f6c164e2b8cfe27d4d60555.jpg

DOWNLOAD LINKS:
Buy Premium To Support Me & Get Resumable Support & Max Speed


Links are Interchangeable - No Password - Single Extraction

The Rolling Stones - More Hot Rocks (Big Hits & Fazed Cookies) 1 (1972) [Polydor, P25L 25049] Fast Download



 
 
 
Dear visitor, you went to the site as an unregistered user. We encourage you to register or enter the site under your name.
 
   
 
 (Votes #: 0)