2013Zone For Latest Downloads

 
     
 
Legal Downloads » Music » Soft Machine Legacy - Live Adventures (2010)
Menu
Home Applications
Games Movies
Music TV Shows
Torrents Graphics

Sitemap

RSS
 
Advanced Search
Last News
Site Info
Top Contributors:
  1    supper88 32766
  2    admin 32671
  3    Whisky 10080
  4    Shark_ 8911
  5    creativelivenew 8706
  6    whathesupa 2799
  7    candymypost 840
  8    hvnteam 629
  9    vuong87 3


Articles:
  This Hour: 0
  Today: 0
  This Month: 78
  All Time: 515636


Torrents:
  Today: 0
  Yesterday: 0
  All Time: 156702


Membership:
  Registered Today :0
  This Hour:0
  This Month:0
  Total:14
  Banned:1

{online}
{inform_torrent}
Friend:
We Recomend
Trend
Trend
Ad1

Search In Site

Music : Soft Machine Legacy - Live Adventures (2010)
 
http://i57.fastpic.ru/big/2015/0326/93/2ca5174537fc86c3972f69eaf4d70793.jpg

Soft Machine Legacy - Live Adventures (2010)
EAC | Flac(Image) + Cue + Log & MP3 CBR 320Kbps
MoonJune Records, MJR036 | ~ 393 or 154 Mb | Scans Included
Canterbury Scene / Prog Rock / Jazz-Rock / Contemporary Jazz

"Soft Machine Legacy dedicate Live Adventures to saxophonist Elton Dean (who died in 2006) and bassist Hugh Hopper (who died in 2009), two key members of Soft Machine during the group's heyday who were also members of Soft Machine Legacy during the 2000s. Their deaths were major losses, but did not signal the end of this Soft Machine spinoff band..."

Soft Machine Legacy - Live Adventures (2010):

http://i58.fastpic.ru/big/2015/0326/14/6e1246fc6d62f00bd67184e54e7b5814.jpg

Tracklist:

01. Has Riff 08:31
02. Grape Hound 08:38
03. The Nodder 07:04
04. In The Back Room 09:41
05. Song Of Aeolus 06:58
06. The Relegation Of Pluto 03:02
07. Gesolreut 05:52
08. Face Lift 03:28
09. The Last Day 05:01

Musicians:

John Etherbridge - electric guitar
Theo Travis - tenor & soprano sax, flute
Roy Babbington - bass guitar
John Marshall - drums


Exact Audio Copy V1.0 beta 3 from 29. August 2011

EAC extraction logfile from 3. August 2012, 10:49

Soft Machine Legacy / Live In Europe

Used drive : HL-DT-STBDDVDRW GBC-H20N Adapter: 1 ID: 0

Read mode : Secure
Utilize accurate stream : Yes
Defeat audio cache : Yes
Make use of C2 pointers : No

Read offset correction

: 667
Overread into Lead-In and Lead-Out : No
Fill up missing offset samples with silence : Yes
Delete leading and trailing silent blocks : No
Null samples used in CRC calculations : Yes
Used interface : Native Win32 interface for Win NT & 2000

Used output format : User Defined Encoder
Selected bitrate : 1024 kBit/s
Quality : High
Add ID3 tag : No
Command line compressor : C:\Program Files\Exact Audio Copy\wavpack.exe
Additional command line options : -hm %source% %dest%

TOC of the extracted CD Track | Start | Length | Start sector | End sector
-----------
1 | 0:00.00 | 8:30.49 | 0 | 38298
2 | 8:30.49 | 8:37.60 | 38299 | 77133
3 | 17:08.34 | 7:03.39 | 77134 | 108897
4 | 24:11.73 | 9:41.17 | 108898 | 152489
5 | 33:53.15 | 6:57.70 | 152490 | 183834
6 | 40:51.10 | 3:02.07 | 183835 | 197491
7 | 43:53.17 | 5:52.25 | 197492 | 223916
8 | 49:45.42 | 3:28.28 | 223917 | 239544
9 | 53:13.70 | 5:00.48 | 239545 | 262092

Range status and errors

Selected range Filename I:\Music\Canterbury scene\Soft Machine\Soft.Machine-Discography.1968-2010.FLAC.CUE.Lossless\3 - Soft Works - Soft Machine Legacy\6 - Soft Machine Legacy - Live Adventures\Soft Machine Legacy - Live In Europe.wav Peak level 99.9 %
Extraction speed 6.2 X
Range quality 100.0 %
Test CRC 4A756F8B
Copy CRC 4A756F8B
Copy OK

No errors occurred


AccurateRip summary

Track 1 not present in database
Track 2 not present in database
Track 3 not present in database
Track 4 not present in database
Track 5 not present in database
Track 6 not present in database
Track 7 not present in database
Track 8 not present in database
Track 9 not present in database

None of the tracks are present in the AccurateRip database

End of status report

---- CUETools DB Plugin V2.1.3

[CTDB TOCID: 9Zh5Z_yEte4xYotlamldQStZOxU-] disk not present in database, Submit result: 9Zh5Z_yEte4xYotlamldQStZOxU- has been uploaded

==== Log checksum 0E9EB24A33A579396890D474936289A5B5FA6EE0E29391CF3E4EDF667AB6FFAA ====

foobar2000 1.2.9 / Dynamic Range Meter 1.1.1
log date: 2015-03-25 11:56:47

--
Analyzed: Soft Machine Legacy / Live Adventures
--

DR Peak RMS Duration Track
--
DR10 -0.01 dB -14.02 dB 8:31 01-Has Riff
DR9 -0.01 dB -9.33 dB 8:38 02-Grape Hound
DR9 -0.01 dB -10.73 dB 7:04 03-The Nodder
DR9 -0.01 dB -11.07 dB 9:41 04-In The Back Room
DR10 -0.01 dB -13.56 dB 6:58 05-Song Of Aeolus
DR9 -0.01 dB -10.89 dB 3:02 06-The Relegation Of Pluto
DR10 -0.01 dB -11.27 dB 5:52 07-Gesolreut
DR9 -0.01 dB -12.14 dB 3:28 08-Face Lift
DR9 -0.01 dB -11.32 dB 5:01 09-The Last Day
--

Number of tracks: 9
Official DR value: DR9

Samplerate: 44100 Hz
Channels: 2
Bits per sample: 16
Bitrate: 875 kbps
Codec: FLAC

[CUETools log; Date: 20.03.2015 11:02:21; Version: 2.1.4]
[AccurateRip ID: 0016a3b7-00a120b4-6f0da609] found.
Track [ CRC | V2 ] Status
01 [a4edf14e|47ec2b9c] (0+3/6) Accurately ripped
02 [337c7dda|3baf7d6f] (0+3/6) Accurately ripped
03 [35f17629|adebea64] (0+3/6) Accurately ripped
04 [14c6e31d|a1f0a823] (0+3/6) Accurately ripped
05 b290dcf|e0a82c21 (0+3/6) Accurately ripped
06 [fb4d427e|287cd085] (0+3/6) Accurately ripped
07 [eebebf56|735d44ff] (0+3/5) Accurately ripped
08 6c93ff1|ecf4176a (0+3/6) Accurately ripped
09 [7a11e309|a4966f2e] (0+3/5) Accurately ripped
Offsetted by -18:
01 [f001cf7b] (0/6) No match (V2 was not tested)
02 [3b7908f0] (0/6) No match (V2 was not tested)
03 [5b612b7c] (0/6) No match (V2 was not tested)
04 dc68048 (0/6) No match (V2 was not tested)
05 [7d27c65f] (0/6) No match (V2 was not tested)
06 [ed717c72] (0/6) No match (V2 was not tested)
07 [639b3c06] (0/5) No match (V2 was not tested)
08 e2ceeef (0/6) No match (V2 was not tested)
09 [fa034a6f] (0/5) No match (V2 was not tested)

Track Peak [ CRC32 ] [W/O NULL] [ LOG ]
-- 99,9 [4A756F8B] [5CA8121B] CRC32
01 99,9 [455B629C] [99E272B8]
02 99,9 [A7D833FC] [7B884AE0]
03 99,9 [220295A0] [F376A7BA]
04 99,9 [080127E7] [2A0E0B8C]
05 99,9 [4100FBF6] [F7F274FD]
06 99,9 [4F41E8E6] [1A142C46]
07 99,9 [C8AF12C1] [5A6E0D7D]
08 99,9 [98BBA36C] [16091D75]
09 99,9 [90CABBCB] [9AF269D4]

http://i57.fastpic.ru/big/2015/0326/84/71f5eb4c0a4004cd0b5bf74a92f35a84.jpg

DOWNLOAD LINKS:
Buy Premium To Support Me & Get Resumable Support & Max Speed


Links are Interchangeable - No Password - Single Extraction



Ad2

 
 
 
Dear visitor, you went to the site as an unregistered user. We encourage you to register or enter the site under your name.
 
   
 
 (Votes #: 0)