2013Zone For Latest Downloads

 
     
 
Legal Downloads » Music » Rolling Stones - More Hot Rocks (Big Hits & Fazed Cookies) 2 (1972) [1985, London 820 516-2]
Menu
Home Applications
Games Movies
Music TV Shows
Torrents Graphics

Sitemap

RSS
 
Advanced Search
Last News
Site Info
Top Contributors:
  1    supper88 32766
  2    admin 32751
  3    Whisky 10080
  4    Shark_ 8911
  5    creativelivenew 8706
  6    whathesupa 2799
  7    candymypost 840
  8    hvnteam 629
  9    vuong87 3


Articles:
  This Hour: 0
  Today: 0
  This Month: 19
  All Time: 515454


Torrents:
  Today: 0
  Yesterday: 0
  All Time: 156715


Membership:
  Registered Today :0
  This Hour:0
  This Month:0
  Total:14
  Banned:1

{online}
{inform_torrent}
Friend:
Full Download Scripts
Torrent Download
Trend
Trend

Search In Site

Music : Rolling Stones - More Hot Rocks (Big Hits & Fazed Cookies) 2 (1972) [1985, London 820 516-2]
 
http://i59.fastpic.ru/big/2015/0327/1f/eb6d7424fa25e2ab0fdfbd8a3c47a11f.jpg

Rolling Stones - More Hot Rocks (Big Hits & Fazed Cookies) 2 (1972)
EAC | Flac(Image) + Cue + Log & MP3 CBR 320Kbps
London 820 516-2 | ~ 255 or 110 Mb | Scans Included
Blues Rock / Classic Rock

"Hot Rocks covers most of the monster hits from the Stones' first decade that remained in radio rotation for decades to come. More Hot Rocks goes for the somewhat smaller hits, some of the better album tracks, and a whole LP side's worth of rarities that hadn't yet been available in the United States when this compilation was released in 1972..."

Rolling Stones - More Hot Rocks (Big Hits & Fazed Cookies) 2 (1972):

http://i65.fastpic.ru/big/2015/0327/8a/39e91328f363983a600724824ad9768a.jpg

Tracklist:

1. What To Do (2:36)
2. Money (That's What I Want) (2:36)
3. Come On (1:52)
4. Fortune Teller (2:22)
5. Have You Seen Your Mother Baby, Standing In The Shadow? (2:39)
6. Dandelion (3:35)
7. We Love You (4:27)
8. I Can't Be Satisfied (3:32)
9. The Rolling Stones - Lady Jane (3:12)
10. Sittin' On A Fence (Alternate Mix) (3:09)
11. 2000 Light Years From Home (4:49)
12. Let It Bleed (5:31)

Exact Audio Copy V1.0 beta 3 from 29. August 2011

EAC extraction logfile from 30. July 2012, 21:09

Rolling Stones / More Hot Rocks 2 [London 820 516-2]

Used drive : _NEC DVD+-RW ND-6500A Adapter: 1 ID: 0

Read mode : Secure
Utilize accurate stream : Yes
Defeat audio cache : Yes
Make use of C2 pointers : No

Read offset correction

: 48
Overread into Lead-In and Lead-Out : No
Fill up missing offset samples with silence : Yes
Delete leading and trailing silent blocks : No
Null samples used in CRC calculations : Yes
Used interface : Native Win32 interface for Win NT & 2000

Used output format : User Defined Encoder
Selected bitrate : 768 kBit/s
Quality : High
Add ID3 tag : No
Command line compressor : C:\Program Files\Exact Audio Copy\FLAC\FLAC.EXE
Additional command line options : -V -8 -T "Date=%year%" -T "Genre=%genre%" %source%

TOC of the extracted CD Track | Start | Length | Start sector | End sector
-----------
1 | 0:00.32 | 2:36.53 | 32 | 11784
2 | 2:37.10 | 2:36.12 | 11785 | 23496
3 | 5:13.22 | 1:52.70 | 23497 | 31966
4 | 7:06.17 | 2:22.05 | 31967 | 42621
5 | 9:28.22 | 2:39.28 | 42622 | 54574
6 | 12:07.50 | 3:35.35 | 54575 | 70734
7 | 15:43.10 | 4:27.27 | 70735 | 90786
8 | 20:10.37 | 3:32.65 | 90787 | 106751
9 | 23:43.27 | 3:12.68 | 106752 | 121219
10 | 26:56.20 | 3:09.02 | 121220 | 135396
11 | 30:05.22 | 4:49.65 | 135397 | 157136
12 | 34:55.12 | 5:31.10 | 157137 | 181971

Range status and errors

Selected range Filename E:\My Music\FLAC\The Rolling Stones\1972 - The Rolling Stones - The Rolling Stones - More Hot Rocks\Rolling Stones - More Hot Rocks 2 [London 820 516-2].wav Peak level 93.2 %
Extraction speed 2.8 X
Range quality 100.0 %
Test CRC B31E4190
Copy CRC B31E4190
Copy OK

No errors occurred


AccurateRip summary

Track 1 accurately ripped (confidence 2) [A9AA5CC7] (AR v2)
Track 2 accurately ripped (confidence 2) [E3DBEB37] (AR v2)
Track 3 accurately ripped (confidence 2) [9E660699] (AR v2)
Track 4 accurately ripped (confidence 2) [75989828] (AR v2)
Track 5 accurately ripped (confidence 2) [D578957E] (AR v2)
Track 6 accurately ripped (confidence 2) [A42445F1] (AR v2)
Track 7 accurately ripped (confidence 2) [8DF230AC] (AR v2)
Track 8 accurately ripped (confidence 2) [5ED980F4] (AR v2)
Track 9 accurately ripped (confidence 2) [9B944F9C] (AR v2)
Track 10 accurately ripped (confidence 2) [14940C20] (AR v2)
Track 11 accurately ripped (confidence 2) [C2AAAB6E] (AR v2)
Track 12 accurately ripped (confidence 2) [0A1DFC11] (AR v2)

All tracks accurately ripped

End of status report

==== Log checksum 62F81417F038B864CC3CB30F42460D10FA580CA0707051467C33F3C87E45167D ====

foobar2000 1.2.9 / Dynamic Range Meter 1.1.1
log date: 2015-03-26 12:13:37

--
Analyzed: Rolling Stones / More Hot Rocks 2 [London 820 516-2]
--

DR Peak RMS Duration Track
--
DR13 -0.93 dB -15.85 dB 2:37 01-What To Do
DR10 -0.74 dB -11.79 dB 2:36 02-Money (That's What I Want)
DR9 -1.17 dB -11.82 dB 1:53 03-Come On
DR12 -0.79 dB -14.96 dB 2:22 04-Fortune Teller
DR9 -1.37 dB -12.82 dB 2:39 05-Have You Seen Your Mother, Baby, Standing In The Shadow?
DR10 -1.47 dB -14.38 dB 3:35 06-Dandelion
DR11 -0.67 dB -15.15 dB 4:27 07-We Love You
DR12 -2.20 dB -16.96 dB 3:33 08-I Can't Be Satisfied
DR12 -0.61 dB -18.10 dB 3:13 09-Lady Jane
DR12 -1.27 dB -17.10 dB 3:09 10-Sittin' On A Fence
DR13 -1.78 dB -18.76 dB 4:50 11-2000 Light Years From Home
DR10 -1.97 dB -14.69 dB 5:31 12-Let It Bleed
--

Number of tracks: 12
Official DR value: DR11

Samplerate: 44100 Hz
Channels: 2
Bits per sample: 16
Bitrate: 768 kbps
Codec: FLAC

[CUETools log; Date: 14.01.2014 23:28:44; Version: 2.1.5]
Pregap length 00:00:32.
[CTDB TOCID: 31dsJSebwZ9k65sug4aDDbvdOFo-] found.
Track | CTDB Status
1 | (1/1) Accurately ripped
2 | (1/1) Accurately ripped
3 | (1/1) Accurately ripped
4 | (1/1) Accurately ripped
5 | (1/1) Accurately ripped
6 | (1/1) Accurately ripped
7 | (1/1) Accurately ripped
8 | (1/1) Accurately ripped
9 | (1/1) Accurately ripped
10 | (1/1) Accurately ripped
11 | (1/1) Accurately ripped
12 | (1/1) Accurately ripped
[AccurateRip ID: 000fb17e-00970669-9c097a0c] found.
Track [ CRC | V2 ] Status
01 [6f42a115|a9aa5cc7] (07+08/40) Accurately ripped
02 [e0aa1fce|e3dbeb37] (07+08/38) Accurately ripped
03 [74d4bc22|9e660699] (07+08/41) Accurately ripped
04 [85f571e5|75989828] (08+08/42) Accurately ripped
05 [1460531c|d578957e] (07+08/41) Accurately ripped
06 [7e7bb812|a42445f1] (07+08/40) Accurately ripped
07 [ab29d307|8df230ac] (07+08/41) Accurately ripped
08 [a7407b87|5ed980f4] (07+08/41) Accurately ripped
09 [c7e813fd|9b944f9c] (06+08/40) Accurately ripped
10 [a36ed258|14940c20] (08+08/41) Accurately ripped
11 [8d882185|c2aaab6e] (07+08/39) Accurately ripped
12 c7143f0|0a1dfc11 (06+08/38) Accurately ripped
Offsetted by 158:
01 [24495682] (15/40) Accurately ripped
02 [2c1e9609] (13/38) Accurately ripped
03 [d82bd95e] (15/41) Accurately ripped
04 [83661d67] (15/42) Accurately ripped
05 [c02d2b53] (15/41) Accurately ripped
06 [cccd1fd8] (14/40) Accurately ripped
07 [179b34f8] (15/41) Accurately ripped
08 [e61a47df] (15/41) Accurately ripped
09 [8c733a13] (15/40) Accurately ripped
10 e273e9a (14/41) Accurately ripped
11 [9f09c4f1] (13/39) Accurately ripped
12 [0b4d27c4] (13/38) Accurately ripped

Track Peak [ CRC32 ] [W/O NULL] [ LOG ]
-- 93,2 31E4190 [CE83A3BC] CRC32
01 89,8 [C0A41C10] [614D73A1]
02 91,7 [21F7ECFF] [AD8DA0D0]
03 87,4 [4E4BE411] [958D1856]
04 91,2 [D93625FA] [E1B06FBB]
05 85,4 [28F5B90C] [5AD00CBC]
06 84,4 [16F3B773] [5E55F525]
07 92,5 [E03E9FC2] [4B96F217]
08 77,6 [5F4EF449] [E0BAC15E]
09 93,2 [EB3A603D] [815567DF]
10 86,3 9F7EAFF [62E5DD93]
11 81,4 [840BCA81] [83093AC4]
12 79,7 [0EB3C191] [D0BEA22B]

http://i58.fastpic.ru/big/2015/0327/b6/d09ddeb02c396c30962389080b2178b6.jpg

DOWNLOAD LINKS:
Buy Premium To Support Me & Get Resumable Support & Max Speed


Links are Interchangeable - No Password - Single Extraction

Rolling Stones - More Hot Rocks (Big Hits & Fazed Cookies) 2 (1972) [1985, London 820 516-2] Fast Download



 
 
 
Dear visitor, you went to the site as an unregistered user. We encourage you to register or enter the site under your name.
 
   
 
 (Votes #: 0)