2013Zone For Latest Downloads

 
     
 
Legal Downloads » Music » Howlin' Wolf - The Back Door Wolf (1973) Remastered Reissue 1995 [Repost, New Rip]
Menu
Home Applications
Games Movies
Music TV Shows
Torrents Graphics

Sitemap

RSS
 
Advanced Search
Last News
Site Info
Top Contributors:
  1    supper88 32766
  2    admin 32651
  3    Whisky 10080
  4    Shark_ 8911
  5    creativelivenew 8706
  6    whathesupa 2799
  7    candymypost 840
  8    hvnteam 629
  9    vuong87 3


Articles:
  This Hour: 0
  Today: 0
  This Month: 0
  All Time: 515681


Torrents:
  Today: 0
  Yesterday: 0
  All Time: 156685


Membership:
  Registered Today :0
  This Hour:0
  This Month:0
  Total:14
  Banned:1

{online}
{inform_torrent}
Friend:
We Recomend
Trend
Trend
onlinemovies

Search In Site

Music : Howlin' Wolf - The Back Door Wolf (1973) Remastered Reissue 1995 [Repost, New Rip]
 
http://i59.fastpic.ru/big/2015/0402/e8/19d6c314524a0461d548232e94225de8.jpg

Howlin' Wolf - The Back Door Wolf (1973) Remastered Reissue 1995
EAC | FLAC | Image (Cue&Log) ~ 320 Mb (incl 5%) | Mp3 (CBR320) ~ 156 Mb (incl 5%) | Scans included
Genre: Chicago Blues, Electric Blues | Label: MCA/Chess | # CHD-9358 | Time: 00:39:39

"Here it is-probably the greatest swan song in the history of Chicago blues. Wolf's last studio album was every bit as uncompromising, emotional and (occasionally) funny as his first, with tunes like Coon on the Moon (which gleefully predicts black Presidents and astronauts) and Watergate Blues. A classic, with new notes and complete credits."

"This, Wolf's last hurrah, is his final studio album. Cut with his regular working band, the Wolf Gang, everything here works well, despite Detroit Junior's annoying use of harpsichord on several tracks. Highlights include Eddie Shaw's "Coon on the Moon," Wolf's own "Moving" and "Stop Using Me," and both takes of "Speak Now Woman." Not the place to start a Wolf collection by any means, but a great place to end up.

Review by Cub Koda, Allmusic.com
"




Tracklist:

01. Moving (02:47)
02. Coon On The Moon (03:47)
03. Speak Now Woman (04:53)
04. Trying To Forget You (03:36)
05. Stop Using Me (02:55)
06. Leave Here Walking (02:33)
07. The Back Door Wolf (04:03)
08. You Turn Slick On Me (04:53)
09. Watergate Blues (03:11)
10. Can't Stay Here (02:34)
11. Speak Now Woman (alternate) (04:23)


Exact Audio Copy V1.0 beta 4 from 7. December 2014

Отчёт EAC об извлечении, выполненном 30. марта 2015, 12:42

Howlin' Wolf / The Back Door Wolf

Дисковод: SONY CD-RW CRX230ED Adapter: 1 ID: 0

Режим чтения : Достоверность
?спользование точного потока : Да
Отключение кэ?а аудио : Да
?спользование указателей C2 : Нет

Коррекция смещения при чтении : 6
Способность читать области Lead-in и Lead-out : Нет
Заполнение пропущенных сэмплов ти?иной : Да
Удаление блоков с ти?иной в начале и конце : Нет
При вычислениях CRC использовались нулевые сэмплы : Да
?нтерфейс : Встроенный Win32-интерфейс для Win NT/2000

Выходной формат : Внутренние WAV-операции
Формат сэмплов : 44.100 Гц; 16 бит; стерео

TOC извлечённого CD Трек | Старт | Длительность | Начальный сектор | Конечный сектор
-------
1 | 0:00.00 | 2:47.15 | 0 | 12539
2 | 2:47.15 | 3:47.17 | 12540 | 29581
3 | 6:34.32 | 4:53.15 | 29582 | 51571
4 | 11:27.47 | 3:36.23 | 51572 | 67794
5 | 15:03.70 | 2:55.12 | 67795 | 80931
6 | 17:59.07 | 2:33.47 | 80932 | 92453
7 | 20:32.54 | 4:03.31 | 92454 | 110709
8 | 24:36.10 | 4:53.05 | 110710 | 132689
9 | 29:29.15 | 3:11.45 | 132690 | 147059
10 | 32:40.60 | 2:34.60 | 147060 | 158669
11 | 35:15.45 | 4:23.10 | 158670 | 178404

Характеристики диапазона извлечения и сообщения об о?ибках

Выбранный диапазон ?мя файла F:\MusicCD\Torrent\Howlin' Wolf - The Back Door Wolf\Howlin' Wolf - The Back Door Wolf.wav Пиковый уровень 100.0 %
Скорость извлечения 7.5 X
Качество диапазона 100.0 %
CRC теста 508C7212
CRC копии 508C7212
Копирование... OK

О?ибок не произо?ло


AccurateRip: сводка

Трек 1 : извлечено точно (доверие 15) [7034631D] (AR v2)
Трек 2 : извлечено точно (доверие 15) [0DB3ACB4] (AR v2)
Трек 3 : извлечено точно (доверие 15) [1623D7D8] (AR v2)
Трек 4 : извлечено точно (доверие 15) 706BD29 (AR v2)
Трек 5 : извлечено точно (доверие 15) [248B89D3] (AR v2)
Трек 6 : извлечено точно (доверие 15) [6114E001] (AR v2)
Трек 7 : извлечено точно (доверие 15) [838BF477] (AR v2)
Трек 8 : извлечено точно (доверие 15) [3586E324] (AR v2)
Трек 9 : извлечено точно (доверие 15) [03DE08D5] (AR v2)
Трек 10 : извлечено точно (доверие 15) [143293C9] (AR v2)
Трек 11 : извлечено точно (доверие 15) [A846D55D] (AR v2)

Все треки извлечены точно

Конец отчёта

---- CUETools DB Plugin V2.1.4

[CTDB TOCID: PjF8_knEtCuXMZAwNRr7_kGS6uE-] found
Submit result: PjF8_knEtCuXMZAwNRr7_kGS6uE- has been confirmed
Track | CTDB Status
1 | (12/12) Accurately ripped
2 | (12/12) Accurately ripped
3 | (12/12) Accurately ripped
4 | (12/12) Accurately ripped
5 | (12/12) Accurately ripped
6 | (12/12) Accurately ripped
7 | (12/12) Accurately ripped
8 | (12/12) Accurately ripped
9 | (12/12) Accurately ripped
10 | (12/12) Accurately ripped
11 | (11/12) Accurately ripped

==== Контрольная сумма отчёта 19A61415C8A41999AFFF6F474599802B835B3BA4C35BEC1ABCD2D24D6FCE7742 ====

foobar2000 1.2 / Dynamic Range Meter 1.1.1
log date: 2015-03-31 15:11:07

--
Analyzed: Howlin' Wolf / The Back Door Wolf
--

DR Peak RMS Duration Track
--
DR10 0.00 dB -11.20 dB 2:47 01-Moving
DR11 0.00 dB -12.88 dB 3:47 02-Coon On The Moon
DR9 0.00 dB -10.80 dB 4:53 03-Speak Now Woman
DR10 0.00 dB -11.84 dB 3:36 04-Trying To Forget You
DR10 0.00 dB -11.02 dB 2:55 05-Stop Using Me
DR9 0.00 dB -10.86 dB 2:34 06-Leave Here Walking
DR9 0.00 dB -11.03 dB 4:03 07-The Back Door Wolf
DR10 0.00 dB -11.46 dB 4:53 08-You Turn Slick On Me
DR11 0.00 dB -12.17 dB 3:12 09-Watergate Blues
DR9 0.00 dB -11.13 dB 2:35 10-Can't Stay Here
DR10 0.00 dB -11.43 dB 4:23 11-Speak Now Woman (alternate)
--

Number of tracks: 11
Official DR value: DR10

Samplerate: 44100 Hz
Channels: 2
Bits per sample: 16
Bitrate: 869 kbps
Codec: FLAC

http://i57.fastpic.ru/big/2015/0402/bc/433cfef054ad3aacc85dcbd359bd5dbc.jpg

http://i57.fastpic.ru/big/2015/0402/5b/b6a975ca6f7f5c56f8502ac4ddc0995b.jpg

DOWNLOAD LINKS:
Buy Premium To Support Me & Get Resumable Support & Max Speed


Links are Interchangeable - No Password - Single Extraction

 
 
 
Dear visitor, you went to the site as an unregistered user. We encourage you to register or enter the site under your name.
 
   
 
 (Votes #: 0)