2013Zone For Latest Downloads

 
     
 
Legal Downloads » Music » Giovanni Guidi Trio - This Is The Day (2015) {ECM 2403}
Menu
Home Applications
Games Movies
Music TV Shows
Torrents Graphics

Sitemap

RSS
 
Advanced Search
Last News
Site Info
Top Contributors:
  1    supper88 32766
  2    admin 32761
  3    Whisky 10080
  4    Shark_ 8911
  5    creativelivenew 8706
  6    whathesupa 2799
  7    candymypost 840
  8    hvnteam 629
  9    vuong87 3


Articles:
  This Hour: 0
  Today: 0
  This Month: 0
  All Time: 515457


Torrents:
  Today: 0
  Yesterday: 0
  All Time: 156740


Membership:
  Registered Today :0
  This Hour:0
  This Month:0
  Total:14
  Banned:1

{online}
{inform_torrent}
Friend:
Full Download Scripts
Torrent Download
Trend
Trend

Search In Site

Music : Giovanni Guidi Trio - This Is The Day (2015) {ECM 2403}
 

http://i55.fastpic.ru/big/2015/0411/36/6823327ef9e34f17c27e84c9ad5b2536.jpg
Giovanni Guidi Trio - This Is The Day (2015) {ECM 2403}
EAC rip (secure mode) | FLAC (tracks)+CUE+LOG -> 323 Mb | MP3 @320 -> 175 Mb
Full Artwork @ 600 dpi (png) -> 295 Mb | 5% repair rar
© 2015 ECM Records | ECM 2403
Jazz / Post Bop / Modern Creative / Piano

" The Giovanni Guidi Trio plays jazz of uncommon originality and reflective depth. On their second ECM album, Italian pianist Guidi, US bassist Morgan, and Portuguese drummer Lobo continue the work begun on the 2011 recording City of Broken Dreams, with pensive, abstract ballads which shimmer with inner tension. Each of the players has a strong sense for the dialectics of sound and silence. The repertoire is mostly from Guidi's pen, but also includes the standard "I'm Through with Love", Cuban songwriter Osvaldo Farrés' "Quizás, quizás, quizás" (familiar to jazz listeners through, above all, Nat King Cole's version), and "Baiiia" by João Lobo."

http://i58.fastpic.ru/big/2015/0411/8d/768da23d6aef74d6fab0b95783808b8d.jpg


ECM INFO

Personnel:
Giovanni Guidi - piano
Thomas Morgan - double bass
João Lobo - drums

tracklist:
01 - Trilly
02 - Carried Away
03 - Game Of Silence
04 - The Cobweb
05 - Baiiia
06 - The Debate
07 - Where They'd Lived
08 - Quizas quizas quizas
09 - Migration
10 - Trilly var.
11 - I'm Through With Love
12 - The Night It Rained Forever

Exact Audio Copy V1.0 beta 3 from 29. August 2011

EAC extraction logfile from 30. March 2015, 21:54

Giovanni Guidi Trio / This Is The Day [ECM 2403]

Used drive : PLEXTOR DVDR PX-891SAW Adapter: 2 ID: 1

Read mode : Secure
Utilize accurate stream : Yes
Defeat audio cache : Yes
Make use of C2 pointers : No

Read offset correction

: 48
Overread into Lead-In and Lead-Out : No
Fill up missing offset samples with silence : Yes
Delete leading and trailing silent blocks : No
Null samples used in CRC calculations : Yes
Used interface
: Native Win32 interface for Win NT & 2000
Gap handling
: Appended to previous track

Used output format : User Defined Encoder
Selected bitrate : 128 kBit/s
Quality : High
Add ID3 tag : No
Command line compressor : C:\Program Files (x86)\Exact Audio Copy\FLAC\FLAC.EXE
Additional command line options : -8 -V -T "ARTIST=%artist%" -T "TITLE=%title%" -T "ALBUM=%albumtitle%" -T "DATE=%year%" -T "TRACKNUMBER=%tracknr%" -T "TOTALTRACKS=%numtracks%" -T "GENRE=%genre%" -T "ALBUMARTIST=%albumartist%" -T "ALBUM ARTIST=%albumartist%" -T "COMMENT=EAC Secure Mode, Test & Copy, AccurateRip, FLAC -8" %source%

TOC of the extracted CD Track | Start | Length | Start sector | End sector
-----------1 | 0:00.00 | 5:18.73 | 0 | 23922 2 | 5:18.73 | 6:06.66 | 23923 | 51438 3 | 11:25.64 | 7:27.05 | 51439 | 84968 4 | 18:52.69 | 3:14.35 | 84969 | 99553 5 | 22:07.29 | 6:03.58 | 99554 | 126836 6 | 28:11.12 | 4:45.41 | 126837 | 148252 7 | 32:56.53 | 10:39.28 | 148253 | 196205 8 | 43:36.06 | 6:48.39 | 196206 | 226844 9 | 50:24.45 | 1:40.18 | 226845 | 234362
10 | 52:04.63 | 4:57.41 | 234363 | 256678
11 | 57:02.29 | 8:36.10 | 256679 | 295388
12 | 65:38.39 | 7:43.74 | 295389 | 330187

Track 1 Filename G:\Flac Rips\01 - Trilly.wav Pre-gap length 0:00:02.00 Peak level 74.8 %
Extraction speed 5.3 X
Track quality 100.0 %
Test CRC 147E246C
Copy CRC 147E246C
Track not present in AccurateRip database
Copy OK

Track 2 Filename G:\Flac Rips\02 - Carried Away.wav Peak level 96.6 %
Extraction speed 6.1 X
Track quality 100.0 %
Test CRC C05CFF54
Copy CRC C05CFF54
Track not present in AccurateRip database
Copy OK

Track 3 Filename G:\Flac Rips\03 - Game Of Silence.wav Peak level 92.6 %
Extraction speed 6.9 X
Track quality 100.0 %
Test CRC 88540129
Copy CRC 88540129
Track not present in AccurateRip database
Copy OK

Track 4 Filename G:\Flac Rips\04 - The Cobweb.wav Peak level 88.1 %
Extraction speed 6.8 X
Track quality 100.0 %
Test CRC 30F4C9F1
Copy CRC 30F4C9F1
Track not present in AccurateRip database
Copy OK

Track 5 Filename G:\Flac Rips\05 - Baiiia.wav Peak level 83.5 %
Extraction speed 7.8 X
Track quality 100.0 %
Test CRC 1A5DBFCF
Copy CRC 1A5DBFCF
Track not present in AccurateRip database
Copy OK

Track 6 Filename G:\Flac Rips\06 - The Debate.wav Peak level 81.2 %
Extraction speed 8.1 X
Track quality 100.0 %
Test CRC A8390A20
Copy CRC A8390A20
Track not present in AccurateRip database
Copy OK

Track 7 Filename G:\Flac Rips\07 - Where They'd Lived.wav Peak level 96.3 %
Extraction speed 9.2 X
Track quality 100.0 %
Test CRC E3A7890E
Copy CRC E3A7890E
Track not present in AccurateRip database
Copy OK

Track 8 Filename G:\Flac Rips\08 - Quizas quizas quizas.wav Peak level 94.4 %
Extraction speed 9.5 X
Track quality 100.0 %
Test CRC 7143095D
Copy CRC 7143095D
Track not present in AccurateRip database
Copy OK

Track 9 Filename G:\Flac Rips\09 - Migration.wav Peak level 91.5 %
Extraction speed 3.8 X
Track quality 99.8 %
Test CRC 78B7F628
Copy CRC 78B7F628
Track not present in AccurateRip database
Copy OK

Track 10 Filename G:\Flac Rips\10 - Trilly var..wav Peak level 89.1 %
Extraction speed 9.6 X
Track quality 100.0 %
Test CRC 10587169
Copy CRC 10587169
Track not present in AccurateRip database
Copy OK

Track 11 Filename G:\Flac Rips\11 - I'm Through With Love.wav Peak level 89.2 %
Extraction speed 10.4 X
Track quality 100.0 %
Test CRC 6EE0F286
Copy CRC 6EE0F286
Track not present in AccurateRip database
Copy OK

Track 12 Filename G:\Flac Rips\12 - The Night It Rained Forever.wav Peak level 88.3 %
Extraction speed 10.8 X
Track quality 100.0 %
Test CRC 57A580C9
Copy CRC 57A580C9
Track not present in AccurateRip database
Copy OK

None of the tracks are present in the AccurateRip database

No errors occurred

End of status report

==== Log checksum 8C3166EB58E5525D6046DFB73FC867C5A0DE9470138767BC021D7E6C8EC45813 ====

http://i55.fastpic.ru/big/2015/0411/d2/e4f3c9a815472b3af22c0ff4eac032d2.jpg

http://i57.fastpic.ru/big/2015/0411/9d/909773fc9bc88efe9b1fd9cccc62549d.jpg

DOWNLOAD LINKS:
Buy Premium To Support Me & Get Resumable Support & Max Speed


Links are Interchangeable - No Password - Single Extraction

Giovanni Guidi Trio - This Is The Day (2015) {ECM 2403} Fast Download



 
 
 
Dear visitor, you went to the site as an unregistered user. We encourage you to register or enter the site under your name.
 
   
 
 (Votes #: 0)