2013Zone For Latest Downloads

 
     
 
Legal Downloads » Music » Carptree - Discography [5 Studio Albums] (2001-2010)
Menu
Home Applications
Games Movies
Music TV Shows
Torrents Graphics

Sitemap

RSS
 
Advanced Search
Last News
Site Info
Top Contributors:
  1    supper88 32767
  2    admin 32760
  3    Whisky 10081
  4    Shark_ 8911
  5    creativelivenew 8706
  6    whathesupa 2799
  7    candymypost 840
  8    hvnteam 629
  9    vuong87 3


Articles:
  This Hour: 0
  Today: 0
  This Month: 4
  All Time: 515460


Torrents:
  Today: 0
  Yesterday: 0
  All Time: 156743


Membership:
  Registered Today :0
  This Hour:0
  This Month:0
  Total:14
  Banned:1

{online}
{inform_torrent}
Friend:
Full Download Scripts
Torrent Download
Trend
Trend

Search In Site

Music : Carptree - Discography [5 Studio Albums] (2001-2010)
 
http://i57.fastpic.ru/big/2015/0413/b7/46c0aaffcea351f8b92274f72dffcfb7.jpg

Carptree - Discography [5 Studio Albums] (2001-2010)
EAC Rip | WavPack (image+.cue+log) - 1,89 GB | MP3 CBR 320 kbps (LAME 3.93) - 673 MB | Covers - 182 MB
Genre: Progressive Rock | RAR 3% Rec. | Label: MALS, SPV/Soyuz Music, Fosfor Creation

"The Swedish band Carptree are lifelong friends (Niclas Flinck and keyboardist Carl Westholm) who in 1997 decided 'to combine good, and sometimes catchy, melodies with more dramatic and progressive arrangements.' In 2001 they released their self-titled debut to some mixed reviews. Some felt that they were a talented band, but others felt they relied too heavily on programmed synths. Their follow-up of Superhero in 2003, however, was a bit more accessible and appealed to fans of Genesis and Fish-era Marillion alike, while flirting with spacier textures in the form of Porcupine Tree. In 2005, Carptree took on a much darker tone with Man Made Machine..."

http://i57.fastpic.ru/big/2015/0413/bc/ed817246f9fa977bfb5796e42bde96bc.jpg

Carptree - Carptree (2001) [Reissue 2007] (Repost)
EAC Rip | WavPack (image+.cue+log) - 398 MB | MP3 CBR 320 kbps (LAME 3.93) - 134 MB | Covers - 26 MB
Genre: Progressive Rock | RAR 3% Rec. | Label: MALS (MALS 252)

Tracklist:
01. Heart
02. Without Curiosity
03. Ten Days of Rain
04. Cuckoo
05. Give Myself Away
06. It Doesn't Know It
07. Fools
08. Coming Out at Night
09. Sad Little Song
10. Together Alive
11. Looking for Someone
12. Nowhere to Grow
13. Tiny Salty Drops

Total time: 56:52

Exact Audio Copy V0.99 prebeta 5 from 4. May 2009

EAC extraction logfile from 22. March 2011, 14:12

Carptree / Carptree

Used drive : hp DVD-RAM GH40L Adapter: 7 ID: 0

Read mode : Secure
Utilize accurate stream : Yes
Defeat audio cache : Yes
Make use of C2 pointers : No

Read offset correction

: 667
Overread into Lead-In and Lead-Out : No
Fill up missing offset samples with silence : Yes
Delete leading and trailing silent blocks : No
Null samples used in CRC calculations : Yes
Used interface
: Installed external ASPI interface

Used output format : Internal WAV Routines
Sample format : 44.100 Hz; 16 Bit; Stereo

TOC of the extracted CD Track | Start | Length | Start sector | End sector
-----------1 | 0:00.00 | 4:54.30 | 0 | 22079 2 | 4:54.30 | 3:42.10 | 22080 | 38739 3 | 8:36.40 | 4:19.27 | 38740 | 58191 4 | 12:55.67 | 1:50.58 | 58192 | 66499 5 | 14:46.50 | 3:50.12 | 66500 | 83761 6 | 18:36.62 | 5:16.40 | 83762 | 107501 7 | 23:53.27 | 3:08.08 | 107502 | 121609 8 | 27:01.35 | 4:39.17 | 121610 | 142551 9 | 31:40.52 | 2:49.13 | 142552 | 155239
10 | 34:29.65 | 5:25.47 | 155240 | 179661
11 | 39:55.37 | 5:01.55 | 179662 | 202291
12 | 44:57.17 | 5:39.30 | 202292 | 227746
13 | 50:36.47 | 6:15.50 | 227747 | 255921

Range status and errors

Selected range Filename C:\Users\WAN0777\Desktop\Rip by WANO777\Carptree - Carptree.wav Peak level 98.8 %
Range quality 99.9 %
Test CRC 976C4406
Copy CRC 976C4406
Copy OK

No errors occurred


AccurateRip summary

Track 1 accurately ripped (confidence 2) [06692899]
Track 2 accurately ripped (confidence 2) [11C9F8B9]
Track 3 accurately ripped (confidence 2) [0DC8C112]
Track 4 accurately ripped (confidence 2) [E3023CBF]
Track 5 accurately ripped (confidence 2) [AD3C7C86]
Track 6 accurately ripped (confidence 2) [84E286D1]
Track 7 accurately ripped (confidence 2) [8C265912]
Track 8 accurately ripped (confidence 2) [50DF69DC]
Track 9 accurately ripped (confidence 2) [3557F002]
Track 10 accurately ripped (confidence 2) [15C676B0]
Track 11 accurately ripped (confidence 2) [8C0C2CAE]
Track 12 accurately ripped (confidence 2) [F1A0A32A]
Track 13 cannot be verified as accurate (confidence 2) [16214B0F], AccurateRip returned [EF8AD982]

12 track(s) accurately ripped
1 track(s) could not be verified as accurate

Some tracks could not be verified as accurate

End of status report

[CUETools log; Date: 10.04.2015 20:43:09; Version: 2.1.4]
[CTDB TOCID: 0PMWjpiJegmsan7nsMkNeQr.wcM-] found.
Track | CTDB Status
1 | (4/4) Accurately ripped
2 | (4/4) Accurately ripped
3 | (4/4) Accurately ripped
4 | (4/4) Accurately ripped
5 | (4/4) Accurately ripped
6 | (4/4) Accurately ripped
7 | (4/4) Accurately ripped
8 | (4/4) Accurately ripped
9 | (4/4) Accurately ripped
10 | (4/4) Accurately ripped
11 | (4/4) Accurately ripped
12 | (4/4) Accurately ripped
13 | (4/4) Accurately ripped
[AccurateRip ID: 00195b69-00ff6084-c50d540d] found.
Track [ CRC | V2 ] Status
01 [06692899|93864d43] (03+02/10) Accurately ripped
02 [11c9f8b9|a41a478b] (03+02/10) Accurately ripped
03 [0dc8c112|ae287398] (03+02/10) Accurately ripped
04 [e3023cbf|f9de0de9] (03+02/11) Accurately ripped
05 [ad3c7c86|30410ee2] (03+02/10) Accurately ripped
06 [84e286d1|f4c3292b] (03+02/10) Accurately ripped
07 [8c265912|d50f59cf] (03+02/10) Accurately ripped
08 [50df69dc|d8dd47f9] (03+02/10) Accurately ripped
09 [3557f002|de210a2f] (03+02/10) Accurately ripped
10 [15c676b0|13a8dbc0] (03+02/10) Accurately ripped
11 [8c0c2cae|d1e80daf] (03+02/10) Accurately ripped
12 [f1a0a32a|f91154b7] (03+02/10) Accurately ripped
13 [16214b0f|be61da3f] (02+02/09) Accurately ripped
Offsetted by 664:
01 [99be5669] (03/10) Accurately ripped
02 [d65b5530] (03/10) Accurately ripped
03 [d63601bc] (03/10) Accurately ripped
04 [8e350c8e] (04/11) Accurately ripped
05 [14b45de6] (03/10) Accurately ripped
06 [6436fd6f] (03/10) Accurately ripped
07 [56cbb925] (03/10) Accurately ripped
08 [34335ceb] (03/10) Accurately ripped
09 [cfa2304a] (03/10) Accurately ripped
10 37800f8 (03/10) Accurately ripped
11 [4fea78c2] (03/10) Accurately ripped
12 [db34a607] (03/10) Accurately ripped
13 [ef8ad982] (03/09) Accurately ripped

Track Peak [ CRC32 ] [W/O NULL] [ LOG ]
-- 98,8 [976C4406] [7E382F83] CRC32
01 98,7 [651B6763] [968E18E5]
02 98,7 [1D6C9307] [E3050CEF]
03 98,7 [7578128F] [C102D225]
04 98,7 [3A774FD5] [071F27FF]
05 98,8 [F74DE2FB] [0460338B]
06 98,7 [7BCA89F7] [F78ED53C]
07 69,9 [9ADF195A] [DA838DBE]
08 98,7 [06F7C8EB] [A80B47A6]
09 97,7 [E1453AA1] [89456E9E]
10 98,7 F7ADCD8 [934AC08B]
11 98,7 [CE60909C] [F2AB53D6]
12 98,7 [95400CA7] [9716A4C2]
13 98,7 AA8A99A [D11B520C]


http://i58.fastpic.ru/big/2015/0413/f8/5764947f7a5cd1eacc523bf134ef6af8.jpg

Carptree - Superhero (2003) [Reissue 2007]
EAC Rip | WavPack (image+.cue+log) - 409 MB | MP3 CBR 320 kbps (LAME 3.93) - 144 MB | Covers - 26 MB
Genre: Progressive Rock | RAR 3% Rec. | Label: MALS (MALS 253)

Tracklist:
01. Superhero
02. Fathers House
03. Calm Sea Of Their Pupils
04. There Like Another
05. Host vs. Graft
06. Watching The Clock
07. Into The Never To Speak Of
08. Flesh
09. Malfunction
10. Lie Down
11. Sleep

Total time: 01:01:13

Exact Audio Copy V0.99 prebeta 5 from 4. May 2009

EAC extraction logfile from 22. March 2011, 21:42

Carptree / Superhero

Used drive : hp DVD-RAM GH40L Adapter: 7 ID: 0

Read mode : Secure
Utilize accurate stream : Yes
Defeat audio cache : Yes
Make use of C2 pointers : No

Read offset correction

: 667
Overread into Lead-In and Lead-Out : No
Fill up missing offset samples with silence : Yes
Delete leading and trailing silent blocks : No
Null samples used in CRC calculations : Yes
Used interface
: Installed external ASPI interface

Used output format : Internal WAV Routines
Sample format : 44.100 Hz; 16 Bit; Stereo

TOC of the extracted CD Track | Start | Length | Start sector | End sector
-----------1 | 0:00.00 | 6:34.17 | 0 | 29566 2 | 6:34.17 | 6:29.05 | 29567 | 58746 3 | 13:03.22 | 5:41.68 | 58747 | 84389 4 | 18:45.15 | 4:03.70 | 84390 | 102684 5 | 22:49.10 | 5:26.25 | 102685 | 127159 6 | 28:15.35 | 4:29.55 | 127160 | 147389 7 | 32:45.15 | 6:41.00 | 147390 | 177464 8 | 39:26.15 | 5:29.62 | 177465 | 202201 9 | 44:56.02 | 6:20.20 | 202202 | 230721
10 | 51:16.22 | 4:12.60 | 230722 | 249681
11 | 55:29.07 | 5:44.15 | 249682 | 275496

Range status and errors

Selected range Filename C:\Users\WAN0777\Desktop\Rip by WANO777\Carptree - Superhero.wav Peak level 100.0 %
Range quality 99.9 %
Test CRC 19C0F12F
Copy CRC 19C0F12F
Copy OK

No errors occurred


AccurateRip summary

Track 1 accurately ripped (confidence 2) [D3B29008]
Track 2 accurately ripped (confidence 2) [6E253F2A]
Track 3 accurately ripped (confidence 2) [EFFB9737]
Track 4 accurately ripped (confidence 2) BCC74EA
Track 5 accurately ripped (confidence 2) [81B1A2A6]
Track 6 accurately ripped (confidence 2) [1DE5CB5B]
Track 7 accurately ripped (confidence 2) [F74D926F]
Track 8 accurately ripped (confidence 2) [A214A61C]
Track 9 accurately ripped (confidence 2) [3A68272B]
Track 10 accurately ripped (confidence 2) [17B75312]
Track 11 cannot be verified as accurate (confidence 2) [A1769444], AccurateRip returned [480978FC]

10 track(s) accurately ripped
1 track(s) could not be verified as accurate

Some tracks could not be verified as accurate

End of status report

[CUETools log; Date: 10.04.2015 20:44:14; Version: 2.1.4]
[CTDB TOCID: 4C6YFABwyDzg6MEVoCB.EL9AgRw-] found.
Track | CTDB Status
1 | (4/4) Accurately ripped
2 | (4/4) Accurately ripped
3 | (4/4) Accurately ripped
4 | (4/4) Accurately ripped
5 | (4/4) Accurately ripped
6 | (4/4) Accurately ripped
7 | (4/4) Accurately ripped
8 | (4/4) Accurately ripped
9 | (4/4) Accurately ripped
10 | (4/4) Accurately ripped
11 | (4/4) Accurately ripped
[AccurateRip ID: 0019b803-00dcf393-b50e590b] found.
Track [ CRC | V2 ] Status
01 [d3b29008|10d1946c] (2+0/9) Accurately ripped
02 [6e253f2a|e870db23] (2+0/9) Accurately ripped
03 [effb9737|92d661b5] (2+0/9) Accurately ripped
04 bcc74ea|79e81040 (2+0/9) Accurately ripped
05 [81b1a2a6|ef01b2a5] (2+0/9) Accurately ripped
06 [1de5cb5b|91afc210] (2+0/9) Accurately ripped
07 [f74d926f|c1792b40] (2+0/9) Accurately ripped
08 [a214a61c|6f026be7] (2+0/9) Accurately ripped
09 [3a68272b|87b6cd8f] (2+0/7) Accurately ripped
10 [17b75312|faab014c] (2+0/7) Accurately ripped
11 [a1769444|2745b1ac] (0+0/5) No match
Offsetted by 664:
01 [a6d53eb0] (2/9) Accurately ripped
02 [ef4e0128] (2/9) Accurately ripped
03 [d39447b1] (2/9) Accurately ripped
04 [38a0d271] (2/9) Accurately ripped
05 [6d5bc1cb] (2/9) Accurately ripped
06 [d9383f6e] (2/9) Accurately ripped
07 [f7a4658c] (2/9) Accurately ripped
08 [86628384] (2/9) Accurately ripped
09 [30571613] (2/7) Accurately ripped
10 [956770ca] (2/7) Accurately ripped
11 [480978fc] (2/5) Accurately ripped

Track Peak [ CRC32 ] [W/O NULL] [ LOG ]
-- 100,0 [19C0F12F] [DE4422F2] CRC32
01 99,9 [D7ACA3E3] [A12E2DA8]
02 100,0 [7E4436FF] [07478444]
03 99,9 [2A9519C4] [20C6A601]
04 88,0 [7E876C17] [547E5E86]
05 99,9 [A32BA1D4] [F01E55F4]
06 79,3 [78A05BAF] [82EA3DA8]
07 99,9 [6B9BB0B7] [6F7A9837]
08 99,8 [8B71BDCF] [9F6DA0CC]
09 99,8 22BE0EC [CE80E761]
10 99,8 [55CAB87D] [74EC4C47]
11 79,3 [90E54ED6] [62BD0EAC]

http://i59.fastpic.ru/big/2015/0413/3a/8a542ad879c3d344be3fc81b853f413a.jpg

Carptree - Man Made Machine (2005)
EAC Rip | WavPack (image+.cue+log) - 378 MB | MP3 CBR 320 kbps (LAME 3.93) - 138 MB | Covers - 61 MB
Genre: Progressive Rock | RAR 3% Rec. | Label: SPV/Soyuz Music (SPV 48502 CD)

Tracklist:
01. Titans Clash Aggressively to Keep an Even Score
02. Sunshine Waters
03. The Weakening Sound
04. Tilting the Scales
05. The Man you Just Became
06. Man Made Machine
07. Burn to Something New
08. In the Centre of an Empty Space
09. The Recipe
10. This is Home

Total time: 58:34

Exact Audio Copy V0.99 prebeta 5 from 4. May 2009

EAC extraction logfile from 22. March 2011, 15:38

Carptree / Man Made Machine

Used drive : hp DVD-RAM GH40L Adapter: 7 ID: 0

Read mode : Secure
Utilize accurate stream : Yes
Defeat audio cache : Yes
Make use of C2 pointers : No

Read offset correction

: 667
Overread into Lead-In and Lead-Out : No
Fill up missing offset samples with silence : Yes
Delete leading and trailing silent blocks : No
Null samples used in CRC calculations : Yes
Used interface
: Installed external ASPI interface

Used output format : Internal WAV Routines
Sample format : 44.100 Hz; 16 Bit; Stereo

TOC of the extracted CD Track | Start | Length | Start sector | End sector
-----------1 | 0:00.00 | 5:30.42 | 0 | 24791 2 | 5:30.42 | 5:48.48 | 24792 | 50939 3 | 11:19.15 | 6:23.65 | 50940 | 79729 4 | 17:43.05 | 6:52.07 | 79730 | 110636 5 | 24:35.12 | 5:17.15 | 110637 | 134426 6 | 29:52.27 | 6:18.18 | 134427 | 162794 7 | 36:10.45 | 5:58.60 | 162795 | 189704 8 | 42:09.30 | 5:34.47 | 189705 | 214801 9 | 47:44.02 | 2:32.18 | 214802 | 226219
10 | 50:16.20 | 8:18.00 | 226220 | 263569

Range status and errors

Selected range Filename C:\Users\WAN0777\Desktop\Rip by WANO777\Carptree - Man Made Machine.wav Peak level 99.9 %
Range quality 99.9 %
Test CRC C908A45D
Copy CRC C908A45D
Copy OK

No errors occurred


AccurateRip summary

Track 1 cannot be verified as accurate (confidence 15) [92F93364], AccurateRip returned [34949ECE]
Track 2 cannot be verified as accurate (confidence 15) [8BD72ED3], AccurateRip returned [DC63CC71]
Track 3 cannot be verified as accurate (confidence 15) [EC0F40A8], AccurateRip returned [09AC14A8]
Track 4 cannot be verified as accurate (confidence 15) [E088FE27], AccurateRip returned D2E9987
Track 5 cannot be verified as accurate (confidence 15) [D9309EA8], AccurateRip returned [07B7F2E8]
Track 6 cannot be verified as accurate (confidence 15) [3F40BC79], AccurateRip returned [45953FDD]
Track 7 cannot be verified as accurate (confidence 15) [D4EC3B12], AccurateRip returned [ABA60B53]
Track 8 cannot be verified as accurate (confidence 14) [334D3958], AccurateRip returned [42A04B4B]
Track 9 cannot be verified as accurate (confidence 15) [0A26ECBF], AccurateRip returned [E043C2F7]
Track 10 cannot be verified as accurate (confidence 15) [21844C06], AccurateRip returned [A8BEE006]

No tracks could be verified as accurate
You may have a different pressing from the one(s) in the database

End of status report

[CUETools log; Date: 10.04.2015 20:46:34; Version: 2.1.4]
[CTDB TOCID: .sW5362_lwa.X9RkECVNvIt44pQ-] found.
Track | CTDB Status
1 | (8/8) Accurately ripped
2 | (8/8) Accurately ripped
3 | (8/8) Accurately ripped
4 | (8/8) Accurately ripped
5 | (8/8) Accurately ripped
6 | (8/8) Accurately ripped
7 | (8/8) Accurately ripped
8 | (8/8) Accurately ripped
9 | (8/8) Accurately ripped
10 | (8/8) Accurately ripped
[AccurateRip ID: 00163dd2-00b18145-860dba0a] found.
Track [ CRC | V2 ] Status
01 [92f93364|cb74d313] (00+00/27) No match
02 [8bd72ed3|74827415] (00+00/27) No match
03 [ec0f40a8|6beeb615] (00+00/27) No match
04 [e088fe27|4572b811] (00+00/27) No match
05 [d9309ea8|6ef25c8d] (00+00/27) No match
06 [3f40bc79|583664d2] (00+00/27) No match
07 [d4ec3b12|69d0460a] (00+00/27) No match
08 [334d3958|a7244c4e] (00+00/26) No match
09 [0a26ecbf|36ab1cb8] (00+00/27) No match
10 [21844c06|42193da8] (00+00/27) No match
Offsetted by 664:
01 [34949ece] (17/27) Accurately ripped
02 [dc63cc71] (17/27) Accurately ripped
03 [09ac14a8] (17/27) Accurately ripped
04 d2e9987 (17/27) Accurately ripped
05 [07b7f2e8] (17/27) Accurately ripped
06 [45953fdd] (17/27) Accurately ripped
07 [aba60b53] (17/27) Accurately ripped
08 [42a04b4b] (16/26) Accurately ripped
09 [e043c2f7] (17/27) Accurately ripped
10 [a8bee006] (17/27) Accurately ripped
Offsetted by 762:
01 [c3e27071] (00/27) No match (V2 was not tested)
02 [00e27aec] (00/27) No match (V2 was not tested)
03 [4f95bba8] (00/27) No match (V2 was not tested)
04 d5ca1cf (00/27) No match (V2 was not tested)
05 [62a24898] (00/27) No match (V2 was not tested)
06 [6fed915f] (00/27) No match (V2 was not tested)
07 [1ec13de9] (00/27) No match (V2 was not tested)
08 [e93cea9b] (00/26) No match (V2 was not tested)
09 [e105b451] (00/27) No match (V2 was not tested)
10 [1ddc5706] (00/27) No match (V2 was not tested)

Track Peak [ CRC32 ] [W/O NULL] [ LOG ]
-- 99,9 [C908A45D] [03CCB588] CRC32
01 98,8 [4441108C] [CE564098]
02 93,3 [D079FBE5] [AD035042]
03 99,9 [9BE52E43] [FA2FDED5]
04 98,8 [3D8BC69D] [07372A51]
05 98,8 [474F5B02] [A891FA57]
06 98,8 [69EE7D71] [25A6850D]
07 98,8 [0E909549] [72B97F34]
08 98,8 [D7CF0C02] C7A9455
09 62,3 [AC4C8298] [5F75A44D]
10 98,8 [45A47A5F] [59C30AAD]

http://i58.fastpic.ru/big/2015/0413/84/5ce19651f47b1e292d01afb1c9e0c584.jpg

Carptree - Insekt (2007)
EAC Rip | WavPack (image+.cue+log) - 418 MB | MP3 CBR 320 kbps (LAME 3.93) - 153 MB | Covers - 65 MB
Genre: Progressive Rock | RAR 3% Rec. | Label: MALS (MALS 232)

Tracklist:
01. Taxonomic Days
02. Mashed Potato Mountain Man
03. The Secret
04. Pressure
05. Sliding Down a Slippery Slope
06. My Index Finger
07. Slow Corrosion of Character
08. Evening Sadness
09. Where Your Thoughts Move With Ease
10. Big Surprise
11. Stressless

Total time: 01:05:15

Exact Audio Copy V0.99 prebeta 5 from 4. May 2009

EAC extraction logfile from 22. March 2011, 16:39

Carptree / Insekt

Used drive : hp DVD-RAM GH40L Adapter: 7 ID: 0

Read mode : Secure
Utilize accurate stream : Yes
Defeat audio cache : Yes
Make use of C2 pointers : No

Read offset correction

: 667
Overread into Lead-In and Lead-Out : No
Fill up missing offset samples with silence : Yes
Delete leading and trailing silent blocks : No
Null samples used in CRC calculations : Yes
Used interface
: Installed external ASPI interface

Used output format : Internal WAV Routines
Sample format : 44.100 Hz; 16 Bit; Stereo

TOC of the extracted CD Track | Start | Length | Start sector | End sector
-----------1 | 0:00.00 | 5:29.00 | 0 | 24674 2 | 5:29.00 | 6:52.33 | 24675 | 55607 3 | 12:21.33 | 6:20.28 | 55608 | 84135 4 | 18:41.61 | 7:13.32 | 84136 | 116642 5 | 25:55.18 | 4:59.37 | 116643 | 139104 6 | 30:54.55 | 6:27.19 | 139105 | 168148 7 | 37:21.74 | 5:53.63 | 168149 | 194686 8 | 43:15.62 | 5:57.05 | 194687 | 221466 9 | 49:12.67 | 4:59.68 | 221467 | 243959
10 | 54:12.60 | 6:54.55 | 243960 | 275064
11 | 61:07.40 | 4:07.72 | 275065 | 293661

Range status and errors

Selected range Filename C:\Users\WAN0777\Desktop\Rip by WANO777\Carptree - Insekt.wav Peak level 98.9 %
Range quality 100.0 %
Test CRC 26378FB6
Copy CRC 26378FB6
Copy OK

No errors occurred


AccurateRip summary

Track 1 accurately ripped (confidence 2) [E0AAF5CD]
Track 2 accurately ripped (confidence 2) [2537BB73]
Track 3 accurately ripped (confidence 2) [00DCB67D]
Track 4 accurately ripped (confidence 2) [C30EF48B]
Track 5 accurately ripped (confidence 2) [E46ACED4]
Track 6 accurately ripped (confidence 2) [4C061950]
Track 7 accurately ripped (confidence 2) [72F660AE]
Track 8 accurately ripped (confidence 2) [23227809]
Track 9 accurately ripped (confidence 2) [150657AC]
Track 10 accurately ripped (confidence 2) [230B4B49]
Track 11 accurately ripped (confidence 2) [841C2BF0]

All tracks accurately ripped

End of status report

[CUETools log; Date: 10.04.2015 20:47:25; Version: 2.1.4]
[CTDB TOCID: wvYvHhxIsgXWlRYRVI2QcstFp3Q-] found.
Track | CTDB Status
1 | (5/5) Accurately ripped
2 | (5/5) Accurately ripped
3 | (5/5) Accurately ripped
4 | (5/5) Accurately ripped
5 | (5/5) Accurately ripped
6 | (5/5) Accurately ripped
7 | (5/5) Accurately ripped
8 | (5/5) Accurately ripped
9 | (5/5) Accurately ripped
10 | (5/5) Accurately ripped
11 | (5/5) Accurately ripped
[AccurateRip ID: 001bba45-00ef5f8d-a00f4b0b] found.
Track [ CRC | V2 ] Status
01 [e0aaf5cd|bd9b3aad] (02+00/11) Accurately ripped
02 [2537bb73|1cd2ac43] (02+00/11) Accurately ripped
03 [00dcb67d|bb12c9ee] (02+00/11) Accurately ripped
04 [c30ef48b|4c279a66] (02+00/11) Accurately ripped
05 [e46aced4|6b606e43] (02+00/11) Accurately ripped
06 [4c061950|4f0c4edc] (02+00/11) Accurately ripped
07 [72f660ae|58c78021] (02+00/11) Accurately ripped
08 [23227809|88472477] (02+00/11) Accurately ripped
09 [150657ac|04fa189c] (02+00/11) Accurately ripped
10 [230b4b49|45976d6e] (02+00/11) Accurately ripped
11 [841c2bf0|6065d319] (02+00/11) Accurately ripped
Offsetted by 664:
01 [05ad68b6] (04/11) Accurately ripped
02 [59c8643e] (04/11) Accurately ripped
03 [505a1822] (04/11) Accurately ripped
04 b2f0e44 (04/11) Accurately ripped
05 443abe6 (04/11) Accurately ripped
06 [7e392074] (04/11) Accurately ripped
07 [92a8941a] (04/11) Accurately ripped
08 [95196d37] (04/11) Accurately ripped
09 [ad8796d8] (04/11) Accurately ripped
10 a0273c3 (04/11) Accurately ripped
11 [1440cf41] (04/11) Accurately ripped
Offsetted by 574:
01 [ccf13693] (00/11) No match (V2 was not tested)
02 [1d3ea854] (00/11) No match (V2 was not tested)
03 [39a1526c] (00/11) No match (V2 was not tested)
04 [47d6fde6] (00/11) No match (V2 was not tested)
05 [cf4ef73a] (00/11) No match (V2 was not tested)
06 [11c62437] (00/11) No match (V2 was not tested)
07 [3512202b] (00/11) No match (V2 was not tested)
08 [40ce866d] (00/11) No match (V2 was not tested)
09 [3509041d] (00/11) No match (V2 was not tested)
10 [ea11cbfa] (00/11) No match (V2 was not tested)
11 [29948a82] (00/11) No match (V2 was not tested)

Track Peak [ CRC32 ] [W/O NULL] [ LOG ]
-- 98,9 [26378FB6] [4E63AA6B] CRC32
01 98,9 [049E6C39] [D9A99844]
02 98,8 [67BA2D21] [8191AFAF]
03 98,8 [5BF7DDED] [0F025281]
04 98,9 [DB1528FB] [ECDB1661]
05 98,8 [FFC3717A] [C6EDD4B4]
06 98,8 [E7E0DB41] [D10C9B26]
07 98,8 [73ADAE7E] [77C7F5FC]
08 98,8 [8EA01DD1] [2362D545]
09 98,8 [F4961562] [40723D11]
10 98,8 [195F892D] 9B64EA4
11 98,8 [34FC2BD8] [F25834CB]

http://i57.fastpic.ru/big/2015/0413/d0/89b31fcf0930225b25e235b45b3addd0.jpg

Carptree - Nymf (2010) (Repost)
EAC Rip | WavPack (image+.cue+log) - 288 MB | MP3 CBR 320 kbps (LAME 3.93) - 104 MB | Covers - 4 MB
Genre: Progressive Rock | RAR 3% Rec. | Label: Fosfor Creation (CWNF5)

Tracklist:
01. Kicking and Collecting
02. Land of Plenty
03. The Weight of the Knowledge
04. Dragonfly
05. Between Extremes (Prelude)
06. Sunrays
07. The Water

Total time: 44:26

Exact Audio Copy V0.99 prebeta 5 from 4. May 2009

EAC extraction logfile from 23. November 2010, 18:34

Carptree / Nymf

Used drive : ASUS DRW-1608P Adapter: 1 ID: 0

Read mode : Secure
Utilize accurate stream : Yes
Defeat audio cache : Yes
Make use of C2 pointers : No

Read offset correction

: 48
Overread into Lead-In and Lead-Out : No
Fill up missing offset samples with silence : Yes
Delete leading and trailing silent blocks : No
Null samples used in CRC calculations : Yes
Used interface
: Native Win32 interface for Win NT & 2000

Used output format : User Defined Encoder
Selected bitrate : 768 kBit/s
Quality : High
Add ID3 tag : No
Command line compressor : C:\Program Files\Exact Audio Copy\FLAC\FLAC.EXE
Additional command line options : -6 -V -T "ARTIST=%a" -T "TITLE=%t" -T "ALBUM=%g" -T "DATE=%y" -T "TRACKNUMBER=%n" -T "GENRE=%m" -T "COMMENT=%e" %s -o %d

TOC of the extracted CD Track | Start | Length | Start sector | End sector
-----------1 | 0:00.00 | 7:05.25 | 0 | 31899 2 | 7:05.25 | 7:34.19 | 31900 | 65968 3 | 14:39.44 | 6:51.43 | 65969 | 96836 4 | 21:31.12 | 8:20.74 | 96837 | 134410 5 | 29:52.11 | 2:12.73 | 134411 | 144383 6 | 32:05.09 | 6:35.20 | 144384 | 174028 7 | 38:40.29 | 5:46.06 | 174029 | 199984

Range status and errors

Selected range Filename D:\Carptree - Nymf.wav Peak level 98.8 %
Range quality 99.9 %
Test CRC 1C708F88
Copy CRC 1C708F88
Copy OK

No errors occurred


AccurateRip summary

Track 1 accurately ripped (confidence 2) [2C9CD8E9]
Track 2 accurately ripped (confidence 2) [EF0F9F03]
Track 3 accurately ripped (confidence 2) [9F9A8A2D]
Track 4 accurately ripped (confidence 2) [6CBE224C]
Track 5 accurately ripped (confidence 2) [02F3FECA]
Track 6 accurately ripped (confidence 2) 09E4F52
Track 7 accurately ripped (confidence 2) [0E1C4F66]

All tracks accurately ripped

End of status report

[CUETools log; Date: 10.04.2015 20:42:09; Version: 2.1.4]
[CTDB TOCID: QMy.k4Zd3ps0jtHCImDlQ1RUHpQ-] found.
Track | CTDB Status
1 | (7/7) Accurately ripped
2 | (7/7) Accurately ripped
3 | (7/7) Accurately ripped
4 | (7/7) Accurately ripped
5 | (7/7) Accurately ripped
6 | (7/7) Accurately ripped
7 | (7/7) Accurately ripped
[AccurateRip ID: 000cee9b-004c60ba-600a6a07] found.
Track [ CRC | V2 ] Status
01 [2c9cd8e9|3e109dde] (00+05/12) Accurately ripped
02 [ef0f9f03|7e4de824] (00+05/12) Accurately ripped
03 [9f9a8a2d|5e38b94c] (00+05/12) Accurately ripped
04 [6cbe224c|309cc921] (00+05/12) Accurately ripped
05 [02f3feca|d408e15a] (00+05/12) Accurately ripped
06 09e4f52|63b344e5 (00+05/12) Accurately ripped
07 [0e1c4f66|c14e467f] (00+05/12) Accurately ripped
Offsetted by -48:
01 [58f1fbb2] (03/12) Accurately ripped
02 [611417cf] (03/12) Accurately ripped
03 [f9314c80] (03/12) Accurately ripped
04 [49610164] (03/12) Accurately ripped
05 [a706ae4c] (03/12) Accurately ripped
06 [a7c04345] (03/12) Accurately ripped
07 [5a73f1d0] (03/12) Accurately ripped

Track Peak [ CRC32 ] [W/O NULL] [ LOG ]
-- 98,8 [1C708F88] [1E161CB4] CRC32
01 98,8 [296E69CB] [CEDFEABD]
02 98,8 [8EC98483] C561951
03 98,8 [20ABC3BF] [406913B3]
04 98,8 [63348F3C] [95BCE183]
05 98,8 [4764378C] [2B278C9F]
06 98,8 [587F06D4] [18E5F005]
07 98,8 [804F0921] [35CBADCB]

Thanks to WANO777 & mekong
DOWNLOAD LINKS:
Buy Premium To Support Me & Get Resumable Support & Max Speed


Links are Interchangeable - No Password - Single Extraction

Carptree - Discography [5 Studio Albums] (2001-2010) Fast Download



 
 
 
Dear visitor, you went to the site as an unregistered user. We encourage you to register or enter the site under your name.
 
   
 
 (Votes #: 0)