2013Zone For Latest Downloads

 
     
 
Legal Downloads » Music » Gentle Giant - Gentle Giant (1970) [1990, Vertigo PPD-3093, Japan]
Menu
Home Applications
Games Movies
Music TV Shows
Torrents Graphics

Sitemap

RSS
 
Advanced Search
Last News
Site Info
Top Contributors:
  1    supper88 32766
  2    admin 32671
  3    Whisky 10080
  4    Shark_ 8911
  5    creativelivenew 8706
  6    whathesupa 2799
  7    candymypost 840
  8    hvnteam 629
  9    vuong87 3


Articles:
  This Hour: 20
  Today: 20
  This Month: 78
  All Time: 515636


Torrents:
  Today: 0
  Yesterday: 0
  All Time: 156702


Membership:
  Registered Today :0
  This Hour:0
  This Month:0
  Total:14
  Banned:1

{online}
{inform_torrent}
Friend:
We Recomend
Trend
Trend
Ad1

Search In Site

Music : Gentle Giant - Gentle Giant (1970) [1990, Vertigo PPD-3093, Japan]
 
http://i58.fastpic.ru/big/2015/0503/79/2d0faee073825dac888610a3fa1ae179.jpg

Gentle Giant - Gentle Giant (1970)
EAC | Flac(Image) + Cue + Log & MP3 CBR 320Kbps
1990 | Vertigo, PPD-3093 | ~ 191 or 87 Mb | Scans(600dpi, jpg) -> 64 Mb
Progressive Rock

"Astonishingly daring debut album, not as focused or overpowering as King Crimson's first but still crashing down barriers and steamrolling expectations. The mix of medieval harmonies and electric rock got stronger on subsequent albums, but the music here is still pretty jarring..."


Tracklist:

01. Giant (06:25)
02. Funny Ways (04:23)
03. Alucard (06:04)
04. Isn't It Quiet And Cold? (03:47)
05. Nothing At All (09:07)
06. Why Not? (05:31)
07. The Queen (01:41)

Exact Audio Copy V1.0 beta 4 from 7. December 2014

EAC extraction logfile from 14. January 2015, 20:15

Gentle Giant / Gentle Giant's First.PPD-3093.Japan

Used drive : PLEXTOR CD-R PREMIUM2 Adapter: 0 ID: 1

Read mode : Secure
Utilize accurate stream : Yes
Defeat audio cache : Yes
Make use of C2 pointers : No

Read offset correction

: 30
Overread into Lead-In and Lead-Out : Yes
Fill up missing offset samples with silence : Yes
Delete leading and trailing silent blocks : No
Null samples used in CRC calculations : Yes
Used interface
: Installed external ASPI interface

Used output format : User Defined Encoder
Selected bitrate : 768 kBit/s
Quality : High
Add ID3 tag : No
Command line compressor : C:\Program Files (x86)\Exact Audio Copy\FLAC\FLAC.EXE
Additional command line options : -V -8 %source%

TOC of the extracted CD Track | Start | Length | Start sector | End sector
1 | 0:00.37 | 6:25.05 | 37 | 28916 2 | 6:25.42 | 4:23.08 | 28917 | 48649 3 | 10:48.50 | 6:04.67 | 48650 | 76016 4 | 16:53.42 | 3:47.00 | 76017 | 93041 5 | 20:40.42 | 9:07.58 | 93042 | 134124 6 | 29:48.25 | 5:31.32 | 134125 | 158981 7 | 35:19.57 | 1:41.55 | 158982 | 166611

Range status and errors

Selected range Filename F:\Temp\Gentle Giant\Gentle Giant's First.1970.PPD-3093.Nippon Phonogram.Japan\Gentle Giant - Gentle Giant's First.PPD-3093.Japan.wav Peak level 84.3 %
Extraction speed 3.8 X
Range quality 100.0 %
Test CRC 0593F1BD
Copy CRC 0593F1BD
Copy OK

No errors occurred


AccurateRip summary

Track 1 accurately ripped (confidence 1) [FDFD2DB2] (AR v2)
Track 2 accurately ripped (confidence 1) [06E1377E] (AR v2)
Track 3 accurately ripped (confidence 1) 4C4B9B2 (AR v2)
Track 4 accurately ripped (confidence 1) [44A9EB80] (AR v2)
Track 5 accurately ripped (confidence 1) [74BF4FF3] (AR v2)
Track 6 accurately ripped (confidence 1) [1473FC8B] (AR v2)
Track 7 accurately ripped (confidence 1) [E07BB941] (AR v2)

All tracks accurately ripped

End of status report

==== Log checksum 47264DBBE89234353273401253DF5FBB58C0FFC1CB762F30A2EC17E0C5B358D2 ====

foobar2000 1.2.9 / Dynamic Range Meter 1.1.1
log date: 2015-04-29 10:41:28

------
Analyzed: Gentle Giant / Gentle Giant's First.PPD-3093.Japan
------

DR Peak RMS Duration Track
------
DR15 -2.59 dB -21.26 dB 6:25 01-Giant
DR13 -3.75 dB -23.00 dB 4:23 02-Funny Ways
DR14 -3.09 dB -20.63 dB 6:05 03-Alucard
DR13 -7.74 dB -23.60 dB 3:47 04-Isn't It Quiet And Cold?
DR14 -2.14 dB -21.09 dB 9:08 05-Nothing At All
DR14 -1.48 dB -18.27 dB 5:31 06-Why Not?
DR11 -6.15 dB -21.63 dB 1:42 07-The Queen
------

Number of tracks: 7
Official DR value: DR13

Samplerate: 44100 Hz
Channels: 2
Bits per sample: 16
Bitrate: 702 kbps
Codec: FLAC

[CUETools log; Date: 29.04.2015 10:41:45; Version: 2.1.4]
Pregap length 00:00:37.
[CTDB TOCID: pXqPJnpi03tdv499yJR8aeUEBn8-] found.
Track | CTDB Status
1 | (1/1) Accurately ripped
2 | (1/1) Accurately ripped
3 | (1/1) Accurately ripped
4 | (1/1) Accurately ripped
5 | (1/1) Accurately ripped
6 | (1/1) Accurately ripped
7 | (1/1) Accurately ripped
[AccurateRip ID: 000ac74e-00407283-4608ad07] found.
Track [ CRC | V2 ] Status
01 [70014dff|fdfd2db2] (1+1/3) Accurately ripped
02 [89dbc986|06e1377e] (1+1/3) Accurately ripped
03 [8312c336|b4c4b9b2] (1+1/3) Accurately ripped
04 [a6f983f0|44a9eb80] (1+1/3) Accurately ripped
05 [e5c6dfbd|74bf4ff3] (1+1/3) Accurately ripped
06 [0ae19144|1473fc8b] (1+1/3) Accurately ripped
07 [17925978|e07bb941] (1+1/3) Accurately ripped
Offsetted by -1875:
01 [6a4b1d73] (1/3) Accurately ripped
02 [e764540a] (1/3) Accurately ripped
03 [489d13b6] (1/3) Accurately ripped
04 [4a4b725a] (1/3) Accurately ripped
05 [62bbae6c] (1/3) Accurately ripped
06 [78889100] (1/3) Accurately ripped
07 aeaea2f (1/3) Accurately ripped

Track Peak [ CRC32 ] [W/O NULL] [ LOG ]
-- 84,3 [0593F1BD] [6DCDD54D] CRC32
01 74,2 [06A82E9D] 40B064D
02 64,9 [AAE3AE34] [D1E88DD2]
03 70,0 [0BC9CCB9] [48AF9EBC]
04 40,9 [6586C09F] [04D2075B]
05 78,1 22C7F4B [28640B84]
06 84,3 [86E55CF6] [2F94C9A9]
07 49,2 30F1F2E [16021931]

http://i60.fastpic.ru/big/2015/0503/e4/2368dcf2b4820c66221e8cc9c94055e4.jpg

DOWNLOAD LINKS:
Buy Premium To Support Me & Get Resumable Support & Max Speed


Links are Interchangeable - No Password - Single Extraction



Ad2

 
 
 
Dear visitor, you went to the site as an unregistered user. We encourage you to register or enter the site under your name.
 
   
 
 (Votes #: 0)