2013Zone For Latest Downloads

 
     
 
Legal Downloads » Music » Robin Ticciati, Scottish Chamber Orchestra - Schumann: The Symphonies (2014)
Menu
Home Applications
Games Movies
Music TV Shows
Torrents Graphics

Sitemap

RSS
 
Advanced Search
Last News
Site Info
Top Contributors:
  1    supper88 32767
  2    admin 32756
  3    Whisky 10081
  4    Shark_ 8911
  5    creativelivenew 8706
  6    whathesupa 2799
  7    candymypost 840
  8    hvnteam 629
  9    vuong87 3


Articles:
  This Hour: 0
  Today: 0
  This Month: 14
  All Time: 515458


Torrents:
  Today: 0
  Yesterday: 0
  All Time: 156743


Membership:
  Registered Today :0
  This Hour:0
  This Month:0
  Total:14
  Banned:1

{online}
{inform_torrent}
Friend:
Full Download Scripts
Torrent Download
Trend
Trend

Search In Site

Music : Robin Ticciati, Scottish Chamber Orchestra - Schumann: The Symphonies (2014)
 
http://i72.fastpic.ru/big/2015/0514/e6/31fc6997e064cbfdeb51cd82b7c894e6.jpg

Robin Ticciati, Scottish Chamber Orchestra - Schumann: The Symphonies (2014)
EAC Rip | Flac (Tracks + cue + log) | 560 MB | MP3 320Kbps CBR | 320 MB | 2 CDs | Full Scans
Genre: Classical | Label: Linn Records | Catalog Number: 450

"‘Schumann: The Symphonies' sees Robin Ticciati and the Scottish Chamber Orchestra embark upon their first symphonic cycle together in a programme that they performed in concerts across Scotland. This is music that is very close to Robin Ticciati's heart; he describes Schumann as one of his favourite composers and has often spoken about how important poetry, colour and story are to Schumann's music."

Symphony No. 1 'Spring', blazes and sparkles with joy, Symphony No. 2 finds its way carefully through to the safe haven of its final movement, the much-loved Symphony No. 3 ‘Rhenish' moves with huge ease and assurance to a resonant and joyful conclusion.

Symphony No. 4 is radical in the way each movement attacks the start of the next movement with barely a pause, and in its minute-and-a-half-long, shimmering and horn-call-filled transition to the finale. Under Ticciati and the SCO it is magnificent, the radical, soaring, disturbing and exhilarating symphony Schumann intended.

The SCO's smaller forces bring a lightness of touch and a clarity to the counterpoint; under Ticciati they achieve a sense of movement that no previous recording has.

Robin Ticciati's recordings have received many accolades: Critics' Choice 'Sound of 2012' (The Independent), 'Classical CD of the Week' (Sunday Times), 'Disc of the Week' (BBC Radio 3 'CD Review'), No. 3 in The Sunday Times' Best Classical Albums of 2012 list and ‘Recording of the Month' (Gramophone).

In October 2014 Robin Ticciati will enter his sixth season as Principal Conductor of the Scottish Chamber Orchestra. He began his tenure as Music Director of Glyndebourne Festival Opera in May 2014.

Gramophone named Robin one of the top ten young ‘conductors on the verge of greatness' and one of 'Tomorrow's Icons' by Gramophone.

2014 is the Scottish Chamber Orchestra's fortieth anniversary year and ‘Schumann: The Symphonies' its twenty second recording with Linn.

Composer: Robert Schumann
Conductor: Robin Ticciati
Orchestra/Ensemble: Scottish Chamber Orchestra

"Reviews: Robin Ticciati's Schumann cycle is the third complete set to appear in the last six months, following Yannick Nézet-Séguin's version with the Chamber Orchestra of Europe for Deutsche Grammophon and Simon Rattle's with the Berlin Philharmoniker on the orchestra's own label. It's also by a considerable margin the best of them, in fact the finest set on disc since David Zinman's on Arte Nova a decade ago, and perhaps the most impressive thing that Ticciati has done on disc so far.

Every bar in these urgent performances with the Scottish Chamber Orchestra seems alive and full of interest. Ticciati uses an orchestra with 32 strings, almost exactly the same size as those used for the first performances, and while none of the climaxes is ever lacking in weight or grandeur - the opening of the Third Symphony, the Rhenish, has a terrific sweep to it - the textures are joyously buoyant. The conductor and his orchestra toured all four works in concert before recording them in the Perth Concert Hall, and in each symphony there is the sense of careful consideration and total absorption in the music so that not a detail of Schumann's scoring goes missing. Everything flows with total naturalness, yet tiny contrapuntal phrases that are often hardly noticeable are allowed to make their points here without a trace of mannered emphasis.

Ticciati opts for the usual 1851 score of the D Minor Symphony rather than the original version of 10 years earlier that Rattle made a point of performing, and demonstrates conclusively that Schumann's supposedly heavy-handed revisions to the score need seem nothing of the sort. Though one might question a few of his tempi - the trio of the Fourth's scherzo is dangerously slow, for instance - such moments are rare; hearing these symphonies in such superbly played, convincingly Schumannesque performances is irresistible. It is clear from this set, and also from his Berlioz recordings with the SCO, that Ticciati has a real affinity with early romantic composers; some more Schumann and perhaps Mendelssohn too ought to follow."


Tracklisting:

Symphony No 1 in B flat major 'Spring' Op 38
1 Andante un poco maestoso - Allegro molto vivace 11'37
2 Larghetto - 6'28
3 Scherzo: Molto vivace 5'33
4 Finale: Allegro animato e grazioso 8'58
Symphony No 2 in C major Op 61
5 Sostenuto assai - Allegro ma non troppo 12'11
6 Scherzo: Allegro vivace 7'21
7 Adagio espressivo 10'13
8 Allegro molto vivace 8'37

Exact Audio Copy V1.0 beta 3 from 29. August 2011

EAC extraction logfile from 29. April 2015, 17:57

Schumann, Robert / The Symphonies (Disc 1)

Used drive : MATSHITADVD-RAM UJ8C0 Adapter: 0 ID: 0

Read mode : Secure
Utilize accurate stream : Yes
Defeat audio cache : Yes
Make use of C2 pointers : No

Read offset correction

: 103
Overread into Lead-In and Lead-Out : No
Fill up missing offset samples with silence : Yes
Delete leading and trailing silent blocks : No
Null samples used in CRC calculations : Yes
Used interface
: Native Win32 interface for Win NT & 2000
Gap handling
: Appended to previous track

Used output format : User Defined Encoder
Selected bitrate : 1024 kBit/s
Quality : High
Add ID3 tag : No
Command line compressor : C:\Program Files (x86)\Exact Audio Copy\Flac\flac.exe
Additional command line options : -8 -V -T "ARTIST=%artist%" -T "TITLE=%title%" -T "ALBUM=%albumtitle%" -T "DATE=%year%" -T "TRACKNUMBER=%tracknr%" -T "GENRE=%genre%" -T "PERFORMER=%albuminterpret%" -T "COMPOSER=%composer%" %haslyrics%--tag-from-file=LYRICS="%lyricsfile%"%haslyrics% -T "ALBUMARTIST=%albumartist%" -T "DISCNUMBER=%cdnumber%" -T "TOTALDISCS=%totalcds%" -T "TOTALTRACKS=%numtracks%" -T "COMMENT=%comment%" %source% -o %dest%

TOC of the extracted CD Track | Start | Length | Start sector | End sector
1 | 0:00.00 | 11:36.74 | 0 | 52273 2 | 11:36.74 | 6:28.32 | 52274 | 81405 3 | 18:05.31 | 5:33.30 | 81406 | 106410 4 | 23:38.61 | 8:57.68 | 106411 | 146753 5 | 32:36.54 | 12:11.11 | 146754 | 201589 6 | 44:47.65 | 7:21.25 | 201590 | 234689 7 | 52:09.15 | 10:13.02 | 234690 | 280666 8 | 62:22.17 | 8:36.60 | 280667 | 319426

Track 1 Filename C:\Users\micha_000\Music\CDEX\01 - Symphony No. 1 in B-flat Major, Op. 38 ''Spring''- I. Andante un poco maestoso - Allegro molto vivace.wav Pre-gap length 0:00:02.00 Peak level 91.9 %
Extraction speed 3.0 X
Track quality 100.0 %
Test CRC 54FBD54F
Copy CRC 54FBD54F
Accurately ripped (confidence 2) [046A2A74] (AR v2)
Copy OK

Track 2 Filename C:\Users\micha_000\Music\CDEX\02 - Symphony No. 1 in B-flat Major, Op. 38 ''Spring''- II. Larghetto.wav Peak level 51.0 %
Extraction speed 2.8 X
Track quality 99.9 %
Test CRC 11EFC908
Copy CRC 11EFC908
Accurately ripped (confidence 2) [990C667D] (AR v2)
Copy OK

Track 3 Filename C:\Users\micha_000\Music\CDEX\03 - Symphony No. 1 in B-flat Major, Op. 38 ''Spring''- III. Scherzo- Molto Vivace.wav Peak level 89.4 %
Extraction speed 2.1 X
Track quality 99.9 %
Test CRC E3963D15
Copy CRC E3963D15
Accurately ripped (confidence 2) [17258629] (AR v2)
Copy OK

Track 4 Filename C:\Users\micha_000\Music\CDEX\04 - Symphony No. 1 in B-flat Major, Op. 38 ''Spring''- IV. Allegro Animato e Grazioso.wav Peak level 91.4 %
Extraction speed 4.2 X
Track quality 100.0 %
Test CRC 1CD9928F
Copy CRC 1CD9928F
Accurately ripped (confidence 2) 972E89C (AR v2)
Copy OK

Track 5 Filename C:\Users\micha_000\Music\CDEX\05 - Symphony No. 2 in C Major, Op. 61- I. Sostenuto assai - Allegro ma non Troppo.wav Pre-gap length 0:00:09.62 Peak level 91.6 %
Extraction speed 4.7 X
Track quality 100.0 %
Test CRC F76ECE8F
Copy CRC F76ECE8F
Accurately ripped (confidence 2) [7E2C4853] (AR v2)
Copy OK

Track 6 Filename C:\Users\micha_000\Music\CDEX\06 - Symphony No. 2 in C Major, Op. 61- II. Scherzo- Allegro Vivace.wav Peak level 89.2 %
Extraction speed 5.0 X
Track quality 100.0 %
Test CRC C3D66FF7
Copy CRC C3D66FF7
Accurately ripped (confidence 2) [2E47260E] (AR v2)
Copy OK

Track 7 Filename C:\Users\micha_000\Music\CDEX\07 - Symphony No. 2 in C Major, Op. 61- III. Adagio Espressivo.wav Peak level 45.0 %
Extraction speed 5.4 X
Track quality 100.0 %
Test CRC E7FCA0E5
Copy CRC E7FCA0E5
Accurately ripped (confidence 2) [A59FB736] (AR v2)
Copy OK

Track 8 Filename C:\Users\micha_000\Music\CDEX\08 - Symphony No. 2 in C Major, Op. 61- IV. Allegro Molto Vivace.wav Peak level 91.8 %
Extraction speed 5.3 X
Track quality 100.0 %
Test CRC 79B111D5
Copy CRC 79B111D5
Accurately ripped (confidence 2) [2039CBC7] (AR v2)
Copy OK

All tracks accurately ripped

No errors occurred

End of status report

==== Log checksum FB9DC1A1A6667AF32876F25825D0B820F329C5C8BEA1F63B003EB6B7974CC570 ====

Symphony No 3 in E flat major 'Rhenish' Op 97
9 Lebhaft 9'37
10 Scherzo: Sehr mäßig 6'02
11 Nicht schnell 5'39
12 Feierlich 5'27
13 Lebhaft 6'06
Symphony No 4 in D minor Op 120
14 Ziemlich langsam - Lebhaft - 10'31
15 Romanze: Ziemlich langsam - 4'06
16 Scherzo: Lebhaft - 5'29
17 Langsam - Lebhaft 9'29

Exact Audio Copy V1.0 beta 3 from 29. August 2011

EAC extraction logfile from 29. April 2015, 20:21

Schumann, Robert / The Symphonies (Disc 2)

Used drive : MATSHITADVD-RAM UJ8C0 Adapter: 0 ID: 0

Read mode : Secure
Utilize accurate stream : Yes
Defeat audio cache : Yes
Make use of C2 pointers : No

Read offset correction

: 103
Overread into Lead-In and Lead-Out : No
Fill up missing offset samples with silence : Yes
Delete leading and trailing silent blocks : No
Null samples used in CRC calculations : Yes
Used interface
: Native Win32 interface for Win NT & 2000
Gap handling
: Appended to previous track

Used output format : User Defined Encoder
Selected bitrate : 1024 kBit/s
Quality : High
Add ID3 tag : No
Command line compressor : C:\Program Files (x86)\Exact Audio Copy\Flac\flac.exe
Additional command line options : -8 -V -T "ARTIST=%artist%" -T "TITLE=%title%" -T "ALBUM=%albumtitle%" -T "DATE=%year%" -T "TRACKNUMBER=%tracknr%" -T "GENRE=%genre%" -T "PERFORMER=%albuminterpret%" -T "COMPOSER=%composer%" %haslyrics%--tag-from-file=LYRICS="%lyricsfile%"%haslyrics% -T "ALBUMARTIST=%albumartist%" -T "DISCNUMBER=%cdnumber%" -T "TOTALDISCS=%totalcds%" -T "TOTALTRACKS=%numtracks%" -T "COMMENT=%comment%" %source% -o %dest%

TOC of the extracted CD Track | Start | Length | Start sector | End sector
1 | 0:00.00 | 9:36.60 | 0 | 43259 2 | 9:36.60 | 6:02.22 | 43260 | 70431 3 | 15:39.07 | 5:38.39 | 70432 | 95820 4 | 21:17.46 | 5:26.63 | 95821 | 120333 5 | 26:44.34 | 6:05.61 | 120334 | 147769 6 | 32:50.20 | 10:30.66 | 147770 | 195085 7 | 43:21.11 | 4:06.16 | 195086 | 213551 8 | 47:27.27 | 5:29.20 | 213552 | 238246 9 | 52:56.47 | 9:28.61 | 238247 | 280907

Track 1 Filename C:\Users\micha_000\Music\CDEX\01 - Symphony No. 3 in E-flat Major, Op. 97 ''Rhenish''- I. Lebhaft.wav Pre-gap length 0:00:02.00 Peak level 89.0 %
Extraction speed 3.0 X
Track quality 100.0 %
Test CRC 186DF391
Copy CRC 186DF391
Accurately ripped (confidence 2) [C75BD3C7] (AR v2)
Copy OK

Track 2 Filename C:\Users\micha_000\Music\CDEX\02 - Symphony No. 3 in E-flat Major, Op. 97 ''Rhenish''- II. Scherzo- Sehr Mabig.wav Peak level 90.1 %
Extraction speed 3.3 X
Track quality 100.0 %
Test CRC 6C021FEA
Copy CRC 6C021FEA
Accurately ripped (confidence 2) [970280AB] (AR v2)
Copy OK

Track 3 Filename C:\Users\micha_000\Music\CDEX\03 - Symphony No. 3 in E-flat Major, Op. 97 ''Rhenish''- III. Nicht schnell.wav Peak level 35.3 %
Extraction speed 3.6 X
Track quality 100.0 %
Test CRC AB9499E9
Copy CRC AB9499E9
Accurately ripped (confidence 2) [3D3FB448] (AR v2)
Copy OK

Track 4 Filename C:\Users\micha_000\Music\CDEX\04 - Symphony No. 3 in E-flat Major, Op. 97 ''Rhenish''- IV. Feierlich.wav Peak level 88.8 %
Extraction speed 3.6 X
Track quality 100.0 %
Test CRC 4CEA7B07
Copy CRC 4CEA7B07
Accurately ripped (confidence 2) [DBFDB7FE] (AR v2)
Copy OK

Track 5 Filename C:\Users\micha_000\Music\CDEX\05 - Symphony No. 3 in E-flat Major, Op. 97 ''Rhenish''- V. Lebhaft.wav Peak level 92.3 %
Extraction speed 3.3 X
Track quality 99.9 %
Test CRC 38FD024A
Copy CRC 38FD024A
Accurately ripped (confidence 2) [D261B3E3] (AR v2)
Copy OK

Track 6 Filename C:\Users\micha_000\Music\CDEX\06 - Symphony No. 4 in D Minor, Op. 120 (1851 version)- I. Ziemlich langsam - Lebhaft.wav Pre-gap length 0:00:10.42 Peak level 89.5 %
Extraction speed 4.7 X
Track quality 100.0 %
Test CRC 6406AFD6
Copy CRC 6406AFD6
Accurately ripped (confidence 2) [5778115D] (AR v2)
Copy OK

Track 7 Filename C:\Users\micha_000\Music\CDEX\07 - Symphony No. 4 in D Minor, Op. 120 (1851 version)- II. Romanze- Ziemlich langsam.wav Peak level 34.0 %
Extraction speed 4.5 X
Track quality 100.0 %
Test CRC FA2CF37D
Copy CRC FA2CF37D
Accurately ripped (confidence 2) [8894AB03] (AR v2)
Copy OK

Track 8 Filename C:\Users\micha_000\Music\CDEX\08 - Symphony No. 4 in D Minor, Op. 120 (1851 version)- III. Scherzo- Lebhaft.wav Peak level 87.6 %
Extraction speed 4.9 X
Track quality 100.0 %
Test CRC 16E9DFD5
Copy CRC 16E9DFD5
Accurately ripped (confidence 2) [C130425D] (AR v2)
Copy OK

Track 9 Filename C:\Users\micha_000\Music\CDEX\09 - Symphony No. 4 in D Minor, Op. 120 (1851 version)- IV. Langsam - Lebhaft.wav Peak level 91.5 %
Extraction speed 5.4 X
Track quality 100.0 %
Test CRC 1A129451
Copy CRC 1A129451
Accurately ripped (confidence 2) [C31215F9] (AR v2)
Copy OK

All tracks accurately ripped

No errors occurred

End of status report

==== Log checksum 8E676E32FCB3BBBF6C1254AA63ECB76B764CA3AB238437A3479B707CD0774A50 ====
DOWNLOAD LINKS:
Buy Premium To Support Me & Get Resumable Support & Max Speed


Links are Interchangeable - No Password - Single Extraction

Robin Ticciati, Scottish Chamber Orchestra - Schumann: The Symphonies (2014) Fast Download



 
 
 
Dear visitor, you went to the site as an unregistered user. We encourage you to register or enter the site under your name.
 
   
 
 (Votes #: 0)