Advertise
onlinemovies


VA - The Original American Folk Blues Festival '1962 (1963) CD Reissue 1991

Published On: 24-05-2015, 01:38
http://i71.fastpic.ru/big/2015/0523/45/6116fa76fd9a39e78f420f2d30b94e45.jpg

VA - The Original American Folk Blues Festival '1962 (1963) CD Reissue 1991
EAC | FLAC | Tracks (Cue&Log) ~ 282 Mb (incl 5%) | Mp3 (CBR320) ~ 133 Mb (incl 5%) | Scans included
Genre: Blues | Label: Polydor | # 825 502-2 | Time: 00:49:12

"Recorded live in a studio in Hamburg, Germany, in October 1962. Includes artists involved with that year's American Folk Blues Festival tour. With generally relaxed and reflective performances. The artists include Memphis Slim, T-Bone Walker, Shakey Jake, Sonny Terry, Brownie McGhee and John Lee Hooker."

http://i70.fastpic.ru/big/2015/0523/58/d89653ee3a600e2effbd3df3d80fe258.jpg

Tracklist:

01. Memphis Slim - We're Gonna Rock (03:02)
02. T-Bone Walker - I Wanna See My Baby (03:20)
03. T-Bone Walker - I'm in Love (04:02)
04. John Lee Hooker - Need Your Love So Bad (03:24)
05. Memphis Slim - Stewball (04:22)
06. John Lee Hooker - Let's Make It (04:38)
07. John Lee Hooker - Shake It Baby (04:15)
08. John Lee Hooker - Right Time (06:20)
09. Shakey Jake Harris; Shakey Jake - Hey Baby (02:19)
10. Shakey Jake - Love My Baby (03:09)
11. Brownie McGhee - Crying at the Station (04:09)
12. Sonny Terry - I'm Crazy 'Bout You Baby (03:29)
13. Memphis Slim - Bye Bye Baby (02:38)


Exact Audio Copy V0.99 prebeta 4 from 23. January 2008

EAC extraction logfile from 16. June 2009, 0:18

Various / The Original American Folk Blues Festival

Used drive : PLEXTOR CD-R PX-230A Adapter: 1 ID: 1

Read mode : Secure
Utilize accurate stream : Yes
Defeat audio cache : Yes
Make use of C2 pointers : No

Read offset correction

: 738
Overread into Lead-In and Lead-Out : No
Fill up missing offset samples with silence : Yes
Delete leading and trailing silent blocks : No
Null samples used in CRC calculations : Yes
Used interface
: Installed external ASPI interface
Gap handling
: Appended to previous track

Used output format : User Defined Encoder
Selected bitrate : 1024 kBit/s
Quality : High
Add ID3 tag : Yes
Command line compressor : C:\Program Files\Exact Audio Copy\1\FLAC\FLAC.EXE
Additional command line options : -6 -V -T "ARTIST=%a" -T "TITLE=%t" -T "ALBUM=%g" -T "DATE=%y" -T "TRACKNUMBER=%n" -T "GENRE=%m" -T "COMMENT=%e" %s -o %d

TOC of the extracted CD Track | Start | Length | Start sector | End sector
1 | 0:00.32 | 3:02.15 | 32 | 13696 2 | 3:02.47 | 3:20.48 | 13697 | 28744 3 | 6:23.20 | 4:02.20 | 28745 | 46914 4 | 10:25.40 | 3:24.22 | 46915 | 62236 5 | 13:49.62 | 4:22.10 | 62237 | 81896 6 | 18:11.72 | 4:38.60 | 81897 | 102806 7 | 22:50.57 | 4:15.30 | 102807 | 121961 8 | 27:06.12 | 6:20.58 | 121962 | 150519 9 | 33:26.70 | 2:19.10 | 150520 | 160954
10 | 35:46.05 | 3:09.35 | 160955 | 175164
11 | 38:55.40 | 4:09.32 | 175165 | 193871
12 | 43:04.72 | 3:29.33 | 193872 | 209579
13 | 46:34.30 | 2:38.20 | 209580 | 221449

Track 1 Filename J:\Rips\01 - We're Gonna Rock.wav Pre-gap length 0:00:02.32 Peak level 89.7 %
Track quality 100.0 %
Test CRC 9111EC56
Copy CRC 9111EC56
Cannot be verified as accurate (confidence 4) [FA816347], AccurateRip returned [A31993EF]
Copy OK

Track 2 Filename J:\Rips\02 - I Wanna See My Baby.wav Pre-gap length 0:00:01.40 Peak level 88.0 %
Track quality 100.0 %
Test CRC C3BB0CD5
Copy CRC C3BB0CD5
Cannot be verified as accurate (confidence 4) [1CEF3DC3], AccurateRip returned [96570D6A]
Copy OK

Track 3 Filename J:\Rips\03 - I'm in Love.wav Pre-gap length 0:00:01.03 Peak level 89.3 %
Track quality 100.0 %
Test CRC E984E60D
Copy CRC E984E60D
Cannot be verified as accurate (confidence 4) [ECC5BFAE], AccurateRip returned [1A78C04C]
Copy OK

Track 4 Filename J:\Rips\04 - Need Your Love So Bad.wav Pre-gap length 0:00:02.02 Peak level 80.6 %
Track quality 100.0 %
Test CRC 36B56501
Copy CRC 36B56501
Cannot be verified as accurate (confidence 4) 31F0008, AccurateRip returned [14AB4E8C]
Copy OK

Track 5 Filename J:\Rips\05 - Stewball.wav Pre-gap length 0:00:01.44 Peak level 78.5 %
Track quality 100.0 %
Test CRC 1630AFEA
Copy CRC 1630AFEA
Cannot be verified as accurate (confidence 4) [1E20FDBF], AccurateRip returned [6CD51AAC]
Copy OK

Track 6 Filename J:\Rips\06 - Let's Make It.wav Pre-gap length 0:00:01.45 Peak level 92.2 %
Track quality 100.0 %
Test CRC 7AB2B12D
Copy CRC 7AB2B12D
Cannot be verified as accurate (confidence 4) [E8F8FA1B], AccurateRip returned [FD3A918A]
Copy OK

Track 7 Filename J:\Rips\07 - Shake It Baby.wav Pre-gap length 0:00:02.17 Peak level 84.1 %
Track quality 100.0 %
Test CRC 71F4DDE2
Copy CRC 71F4DDE2
Cannot be verified as accurate (confidence 4) [028ACB23], AccurateRip returned [38487D0B]
Copy OK

Track 8 Filename J:\Rips\08 - Right Time.wav Pre-gap length 0:00:02.20 Peak level 90.2 %
Track quality 100.0 %
Test CRC 32EC8208
Copy CRC 32EC8208
Cannot be verified as accurate (confidence 4) [5E4FD1A4], AccurateRip returned [A4167DC6]
Copy OK

Track 9 Filename J:\Rips\09 - Hey Baby.wav Pre-gap length 0:00:02.11 Peak level 79.6 %
Track quality 99.9 %
Test CRC 7C776743
Copy CRC 7C776743
Cannot be verified as accurate (confidence 4) [17236B28], AccurateRip returned [F570498C]
Copy OK

Track 10 Filename J:\Rips\10 - Love My Baby.wav Pre-gap length 0:00:00.46 Peak level 77.8 %
Track quality 100.0 %
Test CRC 4E79D197
Copy CRC 4E79D197
Cannot be verified as accurate (confidence 4) [5170B357], AccurateRip returned [E583F435]
Copy OK

Track 11 Filename J:\Rips\11 - Crying at the Station.wav Pre-gap length 0:00:01.39 Peak level 84.3 %
Track quality 100.0 %
Test CRC FB1200BE
Copy CRC FB1200BE
Cannot be verified as accurate (confidence 4) [7B1AABA5], AccurateRip returned [53B9B892]
Copy OK

Track 12 Filename J:\Rips\12 - I'm Crazy 'Bout You Baby.wav Pre-gap length 0:00:02.06 Peak level 80.8 %
Track quality 100.0 %
Test CRC 71496826
Copy CRC 71496826
Cannot be verified as accurate (confidence 4) [2AEC3D5B], AccurateRip returned [6E3D6B8A]
Copy OK

Track 13 Filename J:\Rips\13 - Bye Bye Baby.wav Pre-gap length 0:00:02.07 Peak level 83.6 %
Track quality 100.0 %
Test CRC 2206A01F
Copy CRC 2206A01F
Cannot be verified as accurate (confidence 3) [D914FA97], AccurateRip returned [77CDB00D]
Copy OK

No tracks could be verified as accurate
You may have a different pressing from the one(s) in the database

No errors occurred

End of status report

foobar2000 1.3.8 / Dynamic Range Meter 1.1.1
log date: 2015-05-22 02:03:43

------
Analyzed: Brownie McGhee / The Original American Folk Blues Festival (1) John Lee Hooker / The Original American Folk Blues Festival (2-5) Memphis Slim / The Original American Folk Blues Festival (6-8) Shakey Jake Harris; Shakey Jake / The Original American Folk Blues Festival (9) Shakey Jake / The Original American Folk Blues Festival (10) Sonny Terry / The Original American Folk Blues Festival (11) T-Bone Walker / The Original American Folk Blues Festival (12-13)
------

DR Peak RMS Duration Track
------
DR11 -1.47 dB -15.91 dB 4:09 11-Crying at the Station
DR13 -1.87 dB -18.27 dB 3:24 04-Need Your Love So Bad
DR10 -0.70 dB -14.05 dB 4:39 06-Let's Make It
DR11 -1.50 dB -15.50 dB 4:15 07-Shake It Baby
DR14 -0.89 dB -17.77 dB 6:21 08-Right Time
DR10 -0.94 dB -13.46 dB 3:02 01-We're Gonna Rock
DR12 -2.10 dB -18.85 dB 4:22 05-Stewball
DR10 -1.55 dB -15.47 dB 2:38 13-Bye Bye Baby
DR11 -1.97 dB -15.27 dB 2:19 09-Hey Baby
DR11 -2.18 dB -16.34 dB 3:09 10-Love My Baby
DR11 -1.84 dB -15.92 dB 3:29 12-I'm Crazy 'Bout You Baby
DR10 -1.10 dB -14.67 dB 3:21 02-I Wanna See My Baby
DR12 -0.98 dB -15.92 dB 4:02 03-I'm in Love
------

Number of tracks: 13
Official DR value: DR11

Samplerate: 44100 Hz
Channels: 2
Bits per sample: 16
Bitrate: 667 kbps
Codec: FLAC

http://i72.fastpic.ru/big/2015/0523/28/4a253c2b22a1df40658ec202c09f6128.jpg

http://i71.fastpic.ru/big/2015/0523/f9/d59c0a7db702e36484d6c5f8387bf4f9.jpg

All thanks to original releaser - рмх222




DOWNLOAD LINKS:
Buy Premium To Support Me & Get Resumable Support & Max Speed


Links are Interchangeable - No Password - Single Extraction
[related-news][/related-news]
Dear visitor, you are browsing our website as Guest.
We strongly recommend you to register and login to view hidden contents.

Comments:

Add Comments
 

This site doesn't store any files on its server. We only index and link to content provided by other sites.