2013Zone For Latest Downloads

 
     
 
Legal Downloads » Music » Miles Davis - Miles: The New Miles Davis Quintet (1955) {2009 Prestige RVG Remasters Series}
Menu
Home Applications
Games Movies
Music TV Shows
Torrents Graphics

Sitemap

RSS
 
Advanced Search
Last News
Site Info
Top Contributors:
  1    supper88 32766
  2    admin 32732
  3    Whisky 10080
  4    Shark_ 8911
  5    creativelivenew 8706
  6    whathesupa 2799
  7    candymypost 840
  8    hvnteam 629
  9    vuong87 3


Articles:
  This Hour: 0
  Today: 0
  This Month: 33
  All Time: 515483


Torrents:
  Today: 0
  Yesterday: 0
  All Time: 156685


Membership:
  Registered Today :0
  This Hour:0
  This Month:0
  Total:14
  Banned:1

{online}
{inform_torrent}
Friend:
Full Download Scripts
Torrent Download
Trend
Trend

Search In Site

Music : Miles Davis - Miles: The New Miles Davis Quintet (1955) {2009 Prestige RVG Remasters Series}
 

http://i71.fastpic.ru/big/2015/0526/e1/744da8db36f7c043c43eac95b3b77ce1.jpg
Miles Davis - Miles: The New Miles Davis Quintet (1955) {2009 Prestige RVG Remasters Series}
EAC rip (secure mode) | FLAC (tracks)+CUE+LOG -> 155 Mb | MP3 @320 -> 81 Mb
Full Artwork @ 600 dpi (png) -> 181 Mb | 5% repair rar
© 2009 Concord / Prestige | 0888072313439 | Prestige RVG Remasters Series | 24-bit remaster
Jazz / Bop / Cool / Hard Bop / Trumpet

"Although they had made a few slightly earlier cuts that would later be issued on Columbia, the first full-length album by the Miles Davis Quintet is quite intriguing in that it gives one a look at tenor saxophonist John Coltrane when he still had a hesitant style. This CD reissue has the same music that is currently available on an Original Jazz Classics set: five jazz standards plus "The Theme." Unlike Coltrane, who would develop rapidly within the next year, Miles was already very much in his prime, sounding quite lyrical on "Just Squeeze Me" and "There Is No Greater Love," and the classic rhythm section (pianist Red Garland, bassist Paul Chambers, and drummer Philly Joe Jones) was quickly starting to gel."

http://i72.fastpic.ru/big/2015/0526/45/3f5445a8b88aea85ffb34cd7ae3d3145.jpg


Personnel:
Miles Davis - trumpet
John Coltrane - tenor saxophone
Red Garland - piano
Paul Chambers - bass
Philly Joe Jones - drums

tracklist:
1. Just Squeeze Me 7:31
2. There Is No Greater Love 5:22
3. How Am I To Know? 4:43
4. S'Posin 5:18
5. The Theme 5:52
6. Stablemates 5:22

Exact Audio Copy V1.0 beta 4 from 7. December 2014

EAC extraction logfile from 21. May 2015, 14:43

Miles Davis / Miles: The New Miles Davis Quintet

Used drive : ATAPI iHAS124 B Adapter: 1 ID: 0

Read mode : Secure
Utilize accurate stream : Yes
Defeat audio cache : Yes
Make use of C2 pointers : No

Read offset correction

: 6
Overread into Lead-In and Lead-Out : No
Fill up missing offset samples with silence : Yes
Delete leading and trailing silent blocks : No
Null samples used in CRC calculations : Yes
Used interface
: Native Win32 interface for Win NT & 2000
Gap handling
: Appended to previous track

Used output format : User Defined Encoder
Selected bitrate : 1024 kBit/s
Quality : High
Add ID3 tag : No
Command line compressor : C:\Program Files (x86)\FLAC Frontend\tools\flac.exe
Additional command line options : -8 -V -T "ARTIST=%artist%" -T "TITLE=%title%" -T "ALBUM=%albumtitle%" -T "DATE=%year%" -T "TRACKNUMBER=%tracknr%" -T "TOTALTRACKS=%numtracks%" -T "GENRE=%genre%" -T "ALBUMARTIST=%albumartist%" -T "ALBUM ARTIST=%albumartist%" -T "COMMENT=EAC Secure Mode, Test & Copy, AccurateRip, FLAC -8" %source%

TOC of the extracted CD Track | Start | Length | Start sector | End sector
1 | 0:00.00 | 7:31.04 | 0 | 33828 2 | 7:31.04 | 5:21.45 | 33829 | 57948 3 | 12:52.49 | 4:42.49 | 57949 | 79147 4 | 17:35.23 | 5:18.19 | 79148 | 103016 5 | 22:53.42 | 5:52.27 | 103017 | 129443 6 | 28:45.69 | 5:22.01 | 129444 | 153594

Track 1 Filename D:\_EAC\Miles Davis - Miles - The New Miles Davis Quintet (1955) [FLAC] {RVG Prestige}\01 - Just Squeeze Me (But Don't Tease Me).wav Pre-gap length 0:00:02.00 Peak level 97.9 %
Extraction speed 3.9 X
Track quality 100.0 %
Test CRC 8CEF7F30
Copy CRC 8CEF7F30
Accurately ripped (confidence 13) [756016E0] (AR v2)
Copy OK

Track 2 Filename D:\_EAC\Miles Davis - Miles - The New Miles Davis Quintet (1955) [FLAC] {RVG Prestige}\02 - There Is No Greater Love.wav Pre-gap length 0:00:04.45 Peak level 97.9 %
Extraction speed 4.4 X
Track quality 100.0 %
Test CRC 284902C1
Copy CRC 284902C1
Accurately ripped (confidence 13) [0DA381F4] (AR v2)
Copy OK

Track 3 Filename D:\_EAC\Miles Davis - Miles - The New Miles Davis Quintet (1955) [FLAC] {RVG Prestige}\03 - How Am I To Know.wav Pre-gap length 0:00:04.09 Peak level 97.9 %
Extraction speed 4.8 X
Track quality 100.0 %
Test CRC 5DC3B40C
Copy CRC 5DC3B40C
Accurately ripped (confidence 13) 757385A (AR v2)
Copy OK

Track 4 Filename D:\_EAC\Miles Davis - Miles - The New Miles Davis Quintet (1955) [FLAC] {RVG Prestige}\04 - S'posin.wav Pre-gap length 0:00:04.37 Peak level 97.9 %
Extraction speed 5.2 X
Track quality 100.0 %
Test CRC 0CFD096E
Copy CRC 0CFD096E
Accurately ripped (confidence 13) [3CA54E93] (AR v2)
Copy OK

Track 5 Filename D:\_EAC\Miles Davis - Miles - The New Miles Davis Quintet (1955) [FLAC] {RVG Prestige}\05 - The Theme.wav Pre-gap length 0:00:04.25 Peak level 97.9 %
Extraction speed 5.6 X
Track quality 100.0 %
Test CRC 33B6BFF1
Copy CRC 33B6BFF1
Accurately ripped (confidence 13) [39946177] (AR v2)
Copy OK

Track 6 Filename D:\_EAC\Miles Davis - Miles - The New Miles Davis Quintet (1955) [FLAC] {RVG Prestige}\06 - Stablemates.wav Pre-gap length 0:00:03.50 Peak level 97.9 %
Extraction speed 5.0 X
Track quality 99.9 %
Test CRC 01EBF391
Copy CRC 01EBF391
Accurately ripped (confidence 13) [E695F9E8] (AR v2)
Copy OK

All tracks accurately ripped

No errors occurred

End of status report

==== Log checksum 2BDA3FE9B732C64E3E72777C37120CFBC496CA245158730671B6E9E30FB03565 ====

http://i72.fastpic.ru/big/2015/0526/60/c9269585a29c0d93aa3348e15848bf60.jpg

http://i72.fastpic.ru/big/2015/0526/94/275cf751b68b93c6e5284144da90f894.jpg

DOWNLOAD LINKS:
Buy Premium To Support Me & Get Resumable Support & Max Speed


Links are Interchangeable - No Password - Single Extraction

Miles Davis - Miles: The New Miles Davis Quintet (1955) {2009 Prestige RVG Remasters Series} Fast Download



 
 
 
Dear visitor, you went to the site as an unregistered user. We encourage you to register or enter the site under your name.
 
   
 
 (Votes #: 0)