2013Zone For Latest Downloads

 
     
 
Legal Downloads » Music » Deuter - D (1971) [Reissue 1998]
Menu
Home Applications
Games Movies
Music TV Shows
Torrents Graphics

Sitemap

RSS
 
Advanced Search
Last News
Site Info
Top Contributors:
  1    supper88 32767
  2    admin 32762
  3    Whisky 10081
  4    Shark_ 8911
  5    creativelivenew 8706
  6    whathesupa 2799
  7    candymypost 840
  8    hvnteam 629
  9    vuong87 3


Articles:
  This Hour: 0
  Today: 0
  This Month: 18
  All Time: 515444


Torrents:
  Today: 0
  Yesterday: 0
  All Time: 156743


Membership:
  Registered Today :0
  This Hour:0
  This Month:0
  Total:14
  Banned:1

{online}
{inform_torrent}
Friend:
Full Download Scripts
Torrent Download
Trend
Trend

Search In Site

Music : Deuter - D (1971) [Reissue 1998]
 
http://i71.fastpic.ru/big/2015/0530/c0/b9e10910afdda0c2f2e83f4e461825c0.jpg

Deuter - D (1971) [Reissue 1998]
EAC Rip | FLAC (tracks & cue & log) | 222 MB | MP3 CBR 320 kbps | 97 MB | Scans | 40:58
Genre: KrautRock / Experimental / Ambient | Country: Germany | Label: Kuckuck | 11009-2

"D is the debut album of composer Deuter, released in 1971 through Kuckuck Schallplatten.Beginning with moody bass and guitar plucking that wouldn't be a fraction out of place on albums by fellow German musicians like Ash Ra Tempel, D finds Deuter as both an accomplished composer and self-producer. It's not about simply technical virtuosity, of course, as the music throughout D demonstrates. At once epic in scope and with a sly, careful sense of entrancement, this is psychedelic music in the immediately post-psych world. The multi-part "Babylon," which takes up most of the album's first half, exhibits as much metallic flash and snarl on guitar as it does drowsy, dreamy studio treatment; keyboards are mixed with an endless amount of backwards taping."

"Georg Deuter is a German born New Age instrumentalist who has released more than 60 albums to date since beginning his musical journey back at the start of the early Seventies. However, his debut album `D' in 1971 was a far cry from the placid and pleasing synth soundtracks he would later adopt, instead it's a pure daring Krautrock classic that sounds like no other album. Deuter's debut is comprised of a series of schizophrenic and psychedelic sound collages, mixing everything from electronic organ drones, acoustic and ethnic instrumentation with inventive production techniques for the time and avant-garde experimentations that are initially bewildering and disorientating, yet utterly fascinating and captivating, truly the result of an inspired artist with a reaching vision.
The surreal four part fifteen-minute `Babylon' is a fragmented and psychedelic work of beauty, a frequently ambient but often jarring and unpredictable soundscape. Pink Floyd- like brooding spacey guitars chime over a gentle cacophony of church bells, babies crying, machine-gun fire and soaring jets. Murmuring bass lurks behind distorting repetitive mantra-like guitar stabs, ethereal glistening organs rise and fall around backwards effect slivers and warping swallowing voices that float amongst cocooning deep space loneliness. This piece shares a similar defiant edge of anything goes that the early Vangelis albums had and the cosmic yet earthy ambience of Popul Vuh.

The rest of the first side contains the plodding `Der Turm/Fluchtpunkt', a compact but heady concoction of tabla beats, panning effects and wailing wordless siren calls, with eerie straining Gong-like glissando wisps and fuzzy guitar-fuelled chugging grooves to bring a Can-esque dirty stomp.Frantic, heavy grinding sitar drones race through the ten minute opener of the second side `Krishna Eating Fish and Chips', gradually speeding up to become overwhelming, hypnotic and almost maddening. Around the bubbling atmospherics of `Atlantis', a mix of snaking hissing electronic drones, a drumming pattering of tabla-like beats, shimmering unearthly sighs and backwards effects truly sound like a duelling storm between Heaven and Hell. The opening passages of `Gammastrahlen-Lamm' emerge like a bad nightmarish trip, but piercing droning slices, chittering whispers and reverberating machine hum quickly gives way to a thoughtful and melancholic pulsing organ drift that ends up almost meditative and enveloping...
Review by Aussie-Byrd-Brother
"




Tracklist:

1. Babylon
2. Der Turm/Fluchtpunkt
3. Krishna Eating Fish And Chips
4. Atlantis
5. Gammastrahlen-Lamm

EAC extraction logfile from 19. September 2008, 17:38 for CD
Deuter / D

Used drive : IDE-DVD DROM6216 Adapter: 0 ID: 1
Read mode : Secure with NO C2, accurate stream, disable cache
Read offset correction : 738
Overread into Lead-In and Lead-Out : No

Used output format : C:\Program Files\FLAC\flac.exe (User Defined Encoder)
256 kBit/s
Additional command line options : -8 -V -T "ARTIST=%a" -T "TITLE=%t" -T "ALBUM=%g" -T "DATE=%y" -T "TRACKNUMBER=%n" -T "GENRE=%m" -T "COMMENT=EAC FLAC -8" %s

Other options :
Fill up missing offset samples with silence : Yes
Delete leading and trailing silent blocks : No
Installed external ASPI interface

Track 1
Filename D:\Flac Rips\01 - Babylon (Andantino-Allegro-Andante-Allegro).wav

Pre-gap length 0:00:02.33

Peak level 86.8 %
Track quality 99.9 %
Test CRC 36D8CC77
Copy CRC 36D8CC77
Copy OK

Track 2
Filename D:\Flac Rips\02 - Der Turm - Fluchtpunkt.wav

Pre-gap length 0:00:04.53

Peak level 80.7 %
Track quality 100.0 %
Test CRC B6BAF534
Copy CRC B6BAF534
Copy OK

Track 3
Filename D:\Flac Rips\03 - Krishan Eating Fish And Chips.wav

Pre-gap length 0:00:03.30

Peak level 65.1 %
Track quality 100.0 %
Test CRC BD55F373
Copy CRC BD55F373
Copy OK

Track 4
Filename D:\Flac Rips\04 - Atlantis.wav

Pre-gap length 0:00:02.00

Peak level 87.1 %
Track quality 100.0 %
Test CRC 82A28BC5
Copy CRC 82A28BC5
Copy OK

Track 5
Filename D:\Flac Rips\05 - Gammastrahlen-Lamm.wav

Pre-gap length 0:00:01.72

Peak level 57.6 %
Track quality 100.0 %
Test CRC 19928FDA
Copy CRC 19928FDA
Copy OK

No errors occured

End of status report

Personnel

Deuter/Guitar, Bass, Keyboards, Electronics, Sitar, Percussion

All thanks to katosich

http://i71.fastpic.ru/big/2015/0530/d7/0cd2caa1bb07a0c7ad4ecec093413dd7.jpg

http://i70.fastpic.ru/big/2015/0530/f6/7fe32a7aa3154b1c963fee01b7b3aef6.jpg


DOWNLOAD LINKS:
Buy Premium To Support Me & Get Resumable Support & Max Speed


Links are Interchangeable - No Password - Single Extraction

Deuter - D (1971) [Reissue 1998] Fast Download



 
 
 
Dear visitor, you went to the site as an unregistered user. We encourage you to register or enter the site under your name.
 
   
 
 (Votes #: 0)