2013Zone For Latest Downloads

 
     
 
Legal Downloads » Music » Hot Tuna - First Pull Up, Then Pull Down (1971) [Japanese Reissue, 2008]
Menu
Home Applications
Games Movies
Music TV Shows
Torrents Graphics

Sitemap

RSS
 
Advanced Search
Last News
Site Info
Top Contributors:
  1    supper88 32766
  2    admin 32693
  3    Whisky 10080
  4    Shark_ 8911
  5    creativelivenew 8706
  6    whathesupa 2799
  7    candymypost 840
  8    hvnteam 629
  9    vuong87 3


Articles:
  This Hour: 0
  Today: 0
  This Month: 62
  All Time: 515562


Torrents:
  Today: 0
  Yesterday: 0
  All Time: 156685


Membership:
  Registered Today :0
  This Hour:0
  This Month:0
  Total:14
  Banned:1

{online}
{inform_torrent}
Friend:
We Recomend
Trend
Trend
Ad1

Search In Site

Music : Hot Tuna - First Pull Up, Then Pull Down (1971) [Japanese Reissue, 2008]
 
http://i69.fastpic.ru/big/2015/0609/96/3482d260ece29850a7e010d90b348096.jpg

Hot Tuna - First Pull Up, Then Pull Down (1971) [Japanese Reissue, 2008]
EAC Rip | FLAC: Tracks+Cue+Log | 327 Mb | MP3 CBR 320 kbps | 120 Mb | Scans | 41 Mb | Time: 44:30
Genre: Rock, Blues Rock | Label: BMG Japan, Inc. | Cat.№: BVCM-35460

"First Pull Up, Then Pull Down is the second album by Hot Tuna, released in 1971 as RCA Victor LSP-4550. The album was recorded live with electric instruments, instead of the acoustic instruments used on the previous album, Hot Tuna. The album rose to #43 on the Billboard charts. In 1996, RCA released the CD box set Hot Tuna in a Can, which included a remastered version of this album, along with remasters of the albums Hot Tuna, Burgers, America's Choice and Hoppkorv."



Track Listing

01. John's Other (08:20)
02. Candy Man (05:52)
03. Been So Long (03:49)
04. Want You To Know (04:35)
05. Keep Your Lamps Trimmed And Burning (08:17)
06. Never Happen No More (03:56)
07. Come Back Baby (09:38)

Produced by Jorma Kaukonen

The Band

* Jack Casady - bass
* Jorma Kaukonen - vocals, guitar
* Papa John Creach - electric violin
* Sammy Piazza - drums
* Will Scarlett - harmonica

Notes

Jefferson Family Original Album Paper Sleeve Collection

2008 Japanese exclusive limited edition 7-track 24-Bit digitally remastered CD album, the 2nd longplayer from Jefferson Airplane's Jack Casady and Jorma Kaukonen, originally released in 1971, presented in mini LP-style card sleeve + obi strip.

Exact Audio Copy V0.99 prebeta 4 from 23. January 2008

EAC extraction logfile from 2. October 2008, 11:52

Hot Tuna / First Pull Up, Then Pull Down

Used drive : PIONEER DVD-RW DVR-112D Adapter: 0 ID: 1

Read mode : Secure
Utilize accurate stream : Yes
Defeat audio cache : Yes
Make use of C2 pointers : No

Read offset correction

: 48
Overread into Lead-In and Lead-Out : No
Fill up missing offset samples with silence : Yes
Delete leading and trailing silent blocks : No
Null samples used in CRC calculations : Yes
Used interface
: Installed external ASPI interface
Gap handling
: Appended to previous track

Used output format : Internal WAV Routines
Sample format : 44.100 Hz; 16 Bit; Stereo

TOC of the extracted CD Track | Start | Length | Start sector | End sector
1 | 0:00.00 | 8:20.53 | 0 | 37552 2 | 8:20.53 | 5:51.73 | 37553 | 63950 3 | 14:12.51 | 3:49.49 | 63951 | 81174 4 | 18:02.25 | 4:35.07 | 81175 | 101806 5 | 22:37.32 | 8:17.21 | 101807 | 139102 6 | 30:54.53 | 3:56.11 | 139103 | 156813 7 | 34:50.64 | 9:38.69 | 156814 | 200232

Track 1 Filename P:\Hot Tuna\First Pull Up, Then Pull Down\01 - John's Other.wav Pre-gap length 0:00:02.00 Peak level 100.0 %
Track quality 100.0 %
Test CRC F2610FE1
Copy CRC F2610FE1
Track not present in AccurateRip database
Copy OK

Track 2 Filename P:\Hot Tuna\First Pull Up, Then Pull Down\02 - Candy Man.wav Pre-gap length 0:00:03.40 Peak level 100.0 %
Track quality 99.9 %
Test CRC 578C4EEC
Copy CRC 578C4EEC
Track not present in AccurateRip database
Copy OK

Track 3 Filename P:\Hot Tuna\First Pull Up, Then Pull Down\03 - Been so Long.wav Pre-gap length 0:00:04.10 Peak level 100.0 %
Track quality 100.0 %
Test CRC 5E96891B
Copy CRC 5E96891B
Track not present in AccurateRip database
Copy OK

Track 4 Filename P:\Hot Tuna\First Pull Up, Then Pull Down\04 - Want You to Know.wav Pre-gap length 0:00:03.26 Peak level 100.0 %
Track quality 100.0 %
Test CRC 5E3DD5E0
Copy CRC 5E3DD5E0
Track not present in AccurateRip database
Copy OK

Track 5 Filename P:\Hot Tuna\First Pull Up, Then Pull Down\05 - Keep Your Lamps Trimmed And Burning.wav Pre-gap length 0:00:03.26 Peak level 100.0 %
Track quality 100.0 %
Test CRC 51B662D0
Copy CRC 51B662D0
Track not present in AccurateRip database
Copy OK

Track 6 Filename P:\Hot Tuna\First Pull Up, Then Pull Down\06 - Never Happen no More.wav Pre-gap length 0:00:03.57 Peak level 100.0 %
Track quality 100.0 %
Test CRC D95F27B2
Copy CRC D95F27B2
Track not present in AccurateRip database
Copy OK

Track 7 Filename P:\Hot Tuna\First Pull Up, Then Pull Down\07 - Come Back Baby.wav Pre-gap length 0:00:03.45 Peak level 100.0 %
Track quality 100.0 %
Test CRC 502F1574
Copy CRC 502F1574
Track not present in AccurateRip database
Copy OK

None of the tracks are present in the AccurateRip database

No errors occurred

End of status report

Many thanks to the original uploader: vmsn
DOWNLOAD LINKS:
Buy Premium To Support Me & Get Resumable Support & Max Speed


Links are Interchangeable - No Password - Single Extraction

Hot Tuna - First Pull Up, Then Pull Down (1971) [Japanese Reissue, 2008] Fast Download


Ad2

 
 
 
Dear visitor, you went to the site as an unregistered user. We encourage you to register or enter the site under your name.
 
   
 
 (Votes #: 0)