Advertise
onlinemovies


John Du Cann - The Many Sides Of 1967-1980 (2012)

Published On: 13-06-2015, 20:06
http://i69.fastpic.ru/big/2015/0612/75/d5ef348a6cac467f5bbb4cdc4f7a9d75.jpg

John Du Cann - The Many Sides Of 1967-1980 (2012)
EAC | Flac(Image) + Cue + Log & MP3 CBR 320Kbps
Angel Air, SJPCD383 | ~ 494 or 187 Mb | Scans Included
Psychedelic Rock / Progressive Rock / Mod

"'The Many Sides Of' is a retrospective roller coaster ride of John Du Cann's career spanning The Attack, Andromeda, Bullet, Hard Stuff, solo material and, of course, his most successful outfit Atomic Rooster, pulled together with the help of John McCoy of Gillan and Angel Air..."

http://i71.fastpic.ru/big/2015/0612/97/fbd5e26e1b5b8db48195d42879e8b597.jpg

John Du Cann at Wiki | John Du Cann at Discogs | John Du Cann at Allmusic

***********
John Du Cann - The Many Sides Of 1967-1980 (2012):

http://i72.fastpic.ru/big/2015/0612/82/5b12f9ee102207c6ded47a6bffa34782.jpg

Tracklist:

01. Magic In The Air (The Attack 1967) 03:38
02. Mr. Pinnodmy's Dilemma (The Attack 1967) 04:27
03. Too Old (Andromeda 1969) 04:59
04. Return To Sanity (3 parts) 08:20
a) Breakdown
b) Hope
c) Conclusion (Andromeda 1969)
05. Tomorrow Night (Atomic Rooster 1971) 04:50
06. Devil's Answer (Atomic Rooster 1971) 04:09
07. Night Living (Atomic Rooster 1971) 03:36
08. The Soul That I Had (Bullet 1971) 05:37
09. Fortunes Told (Bullet 1971) 03:29
10. Millionaire (Hard Stuff 1972) 05:50
11. Jay Time (Hard Stuff 1972) 02:48
12. Roll A Rocket (Hard Stuff 1973) 05:08
13. She's My Woman (John Du Cann 1977) 02:29
14. Don't Be A Dummy (John Du Cann 1979) 03:05
15. Don't Lose Your Mind (Atomic Rooster 1980) 03:34
16. They Took Control Of You (Atomic Rooster 1980) 04:49

Exact Audio Copy V1.0 beta 6 from 9. April 2015

EAC extraction logfile from 3. June 2015, 14:04

John Du Cann / The Many Sides Of 1967-1980

Used drive : Optiarc DVD RW AD-5280S Adapter: 1 ID: 1

Read mode : Secure
Utilize accurate stream : Yes
Defeat audio cache : Yes
Make use of C2 pointers : No

Read offset correction

: 48
Overread into Lead-In and Lead-Out : No
Fill up missing offset samples with silence : Yes
Delete leading and trailing silent blocks : No
Null samples used in CRC calculations : Yes
Used interface
: Native Win32 interface for Win NT & 2000

Used output format : User Defined Encoder
Selected bitrate : 1024 kBit/s
Quality : High
Add ID3 tag : No
Command line compressor : C:\Program Files\Exact Audio Copy\flac-1.3.1-win\win32\flac.exe
Additional command line options : -8 -V -T "ARTIST=%artist%" -T "TITLE=%title%" -T "ALBUM=%albumtitle%" -T "DATE=%year%" -T "TRACKNUMBER=%tracknr%" -T "GENRE=%genre%" -T "COMMENT=%comment%" %source% -o %dest%

TOC of the extracted CD Track | Start | Length | Start sector | End sector
1 | 0:00.00 | 3:38.54 | 0 | 16403 2 | 3:38.54 | 4:27.23 | 16404 | 36451 3 | 8:06.02 | 4:59.37 | 36452 | 58913 4 | 13:05.39 | 8:20.00 | 58914 | 96413 5 | 21:25.39 | 4:50.57 | 96414 | 118220 6 | 26:16.21 | 4:09.23 | 118221 | 136918 7 | 30:25.44 | 3:36.34 | 136919 | 153152 8 | 34:02.03 | 5:37.51 | 153153 | 178478 9 | 39:39.54 | 3:29.31 | 178479 | 194184
10 | 43:09.10 | 5:50.50 | 194185 | 220484
11 | 48:59.60 | 2:48.10 | 220485 | 233094
12 | 51:47.70 | 5:08.39 | 233095 | 256233
13 | 56:56.34 | 2:29.35 | 256234 | 267443
14 | 59:25.69 | 3:05.30 | 267444 | 281348
15 | 62:31.24 | 3:34.66 | 281349 | 297464
16 | 66:06.15 | 4:49.34 | 297465 | 319173

Range status and errors

Selected range Filename C:\Sket4er\John Du Cann - The Many Sides Of 1967-1980 (2012) flac\John Du Cann - The Many Sides Of 1967-1980.wav Peak level 100.0 %
Extraction speed 4.4 X
Range quality 100.0 %
Test CRC 513798D0
Copy CRC 513798D0
Copy OK

No errors occurred


AccurateRip summary

Track 1 not present in database
Track 2 not present in database
Track 3 not present in database
Track 4 not present in database
Track 5 not present in database
Track 6 not present in database
Track 7 not present in database
Track 8 not present in database
Track 9 not present in database
Track 10 not present in database
Track 11 not present in database
Track 12 not present in database
Track 13 not present in database
Track 14 not present in database
Track 15 not present in database
Track 16 not present in database

None of the tracks are present in the AccurateRip database

End of status report

---- CUETools DB Plugin V2.1.6

[CTDB TOCID: _lvDPHil5_.rHOgzZzu47iupF6k-] disk not present in database
Submit result: _lvDPHil5_.rHOgzZzu47iupF6k- has been uploaded

==== Log checksum 94203CD507B2F73DBCD4E298062F0E0A05337F9EB67605FB6195ACEBED709A55 ====

foobar2000 1.2.9 / Dynamic Range Meter 1.1.1
log date: 2015-06-11 10:10:55

------
Analyzed: John Du Cann / The Many Sides Of 1967-1980
------

DR Peak RMS Duration Track
------
DR6 -0.80 dB -8.29 dB 3:39 01-Magic In The Air / The Attack 1967
DR7 -1.00 dB -8.56 dB 4:27 02-Mr. Pinnodmy's Dilemma / The Attack 1967
DR11 -0.14 dB -11.93 dB 4:59 03-Too Old / Andromeda 1969
DR10 -0.14 dB -12.60 dB 8:20 04-Return To Sanity / Andromeda 1969
DR8 -0.01 dB -8.54 dB 4:51 05-Tomorrow Night / Atomic Rooster 1971
DR7 0.00 dB -8.76 dB 4:09 06-Devil's Answer / Atomic Rooster 1971
DR9 0.00 dB -9.97 dB 3:36 07-Night Living / Atomic Rooster 1971
DR8 -0.01 dB -10.07 dB 5:38 08-The Soul That I Had / Bullet 1971
DR7 -0.06 dB -8.66 dB 3:29 09-Fortunes Told / Bullet 1971
DR8 0.00 dB -9.26 dB 5:51 10-Millionaire / Hard Stuff 1972
DR9 0.00 dB -9.74 dB 2:48 11-Jay Time / Hard Stuff 1972
DR7 0.00 dB -9.12 dB 5:09 12-Roll A Rocket / Hard Stuff 1973
DR8 -0.22 dB -9.73 dB 2:29 13-She's My Woman / John Du Cann 1977
DR7 -0.12 dB -9.62 dB 3:05 14-Don't Be A Dummy / John Du Cann 1979
DR8 -0.30 dB -9.78 dB 3:35 15-Don't Lose Your Mind / Atomic Rooster 1980
DR7 -0.30 dB -8.65 dB 4:49 16-They Took Control Of You / Atomic Rooster 1980
------

Number of tracks: 16
Official DR value: DR8

Samplerate: 44100 Hz
Channels: 2
Bits per sample: 16
Bitrate: 909 kbps
Codec: FLAC

[CUETools log; Date: 03.06.2015 14:06:00; Version: 2.1.4]
[CTDB TOCID: _lvDPHil5_.rHOgzZzu47iupF6k-] found.
Track | CTDB Status
1 | (1/1) Accurately ripped
2 | (1/1) Accurately ripped
3 | (1/1) Accurately ripped
4 | (1/1) Accurately ripped
5 | (1/1) Accurately ripped
6 | (1/1) Accurately ripped
7 | (1/1) Accurately ripped
8 | (1/1) Accurately ripped
9 | (1/1) Accurately ripped
10 | (1/1) Accurately ripped
11 | (1/1) Accurately ripped
12 | (1/1) Accurately ripped
13 | (1/1) Accurately ripped
14 | (1/1) Accurately ripped
15 | (1/1) Accurately ripped
16 | (1/1) Accurately ripped
[AccurateRip ID: 002bb503-0206ddb1-01109f10] disk not present in database.

Track Peak [ CRC32 ] [W/O NULL] [ LOG ]
-- 100,0 [513798D0] [9DD5974E] CRC32
01 91,2 [A7B55DCD] [786E0FA1]
02 89,1 [AAB95A9E] [26DD3D88]
03 98,4 [DD164BB0] 2A200DA
04 98,4 [22B34314] [CF7B7444]
05 99,9 [3BFB91D4] [6E3F43DB]
06 100,0 [DA19DB18] [1999DB5C]
07 99,9 [6B9F890F] [1B2B7152]
08 99,9 [8789660E] 139F825
09 99,3 [64C44BF7] [72E61C28]
10 100,0 [EE8DC647] [65E5E0E5]
11 100,0 [824DB14A] [78E3F598]
12 100,0 [43343C8F] [997735C3]
13 97,4 [26E71B53] E5CC9F8
14 98,5 09A18B2 [DF9E7395]
15 96,6 [2186A004] [25CDD086]
16 96,6 [2D8D13C0] [FEE4BA39]

http://i69.fastpic.ru/big/2015/0612/9c/ab300f9011f5b3794bd0f1da07b1a89c.jpg

DOWNLOAD LINKS:
Buy Premium To Support Me & Get Resumable Support & Max Speed


Links are Interchangeable - No Password - Single Extraction

Friends: Free Full Download | Torrent Magnet Download | Graphics Download | Watch Online Movies
Dear visitor, you are browsing our website as Guest.
We strongly recommend you to register and login to view hidden contents.

Comments:

Add Comments
 

This site doesn't store any files on its server. We only index and link to content provided by other sites.