2013Zone For Latest Downloads

 
     
 
Legal Downloads » Music » Miles Davis - Kind Of Blue (1959) [2010 2CD Edition with Two Bonus Albums]
Menu
Home Applications
Games Movies
Music TV Shows
Torrents Graphics

Sitemap

RSS
 
Advanced Search
Last News
Site Info
Top Contributors:
  1    supper88 32766
  2    admin 32660
  3    Whisky 10080
  4    Shark_ 8911
  5    creativelivenew 8706
  6    whathesupa 2799
  7    candymypost 840
  8    hvnteam 629
  9    vuong87 3


Articles:
  This Hour: 0
  Today: 0
  This Month: 14
  All Time: 515665


Torrents:
  Today: 0
  Yesterday: 0
  All Time: 156699


Membership:
  Registered Today :0
  This Hour:0
  This Month:0
  Total:14
  Banned:1

{online}
{inform_torrent}
Friend:
We Recomend
Trend
Trend
onlinemovies

Search In Site

Music : Miles Davis - Kind Of Blue (1959) [2010 2CD Edition with Two Bonus Albums]
 
http://i69.fastpic.ru/big/2015/0612/b0/f48204847850a85ff9c3509c275202b0.jpg

Miles Davis - Kind Of Blue (1959) + Ascenseur Pour L'Échafaud (1958) + Somethin' Else
EAC | FLAC | Tracks (Cue&Log) ~ 690 Mb (incl 5%) | Mp3 (CBR320) ~ 321 Mb (incl 5%) | Scans included
Genre: Hard Bop, Modal jazz | Label: Not Now Music | # NOT2CD335 | Time: 01:51:16

"Kind of Blue isn't merely an artistic highlight for Miles Davis, it's an album that towers above its peers, a record generally considered as the definitive jazz album, a universally acknowledged standard of excellence. Why does Kind of Blue possess such a mystique? Perhaps because this music never flaunts its genius. It lures listeners in with the slow, luxurious bassline and gentle piano chords of "So What." From that moment on, the record never really changes pace -- each tune has a similar relaxed feel, as the music flows easily. Yet Kind of Blue is more than easy listening. It's the pinnacle of modal jazz -- tonality and solos build from the overall key, not chord changes, giving the music a subtly shifting quality. All of this doesn't quite explain why seasoned jazz fans return to this record even after they've memorized every nuance. They return because this is an exceptional band -- Miles, Coltrane, Bill Evans, Cannonball Adderley, Paul Chambers, Jimmy Cobb -- one of the greatest in history, playing at the peak of its power."



Tracklist:

CD1 - Kind Of Blue:

01. So What (09:26)
02. Freddie Freeloader (09:49)
03. Blue In Green (05:39)
04. All Blues (11:35)
05. Flamenco Sketches (09:27)

CD2:

Ascenseur Pour L'Échefaud:

01. Generique (02:50)
02. L'Assassinat De Carala (02:11)
03. Sur L'Autoroute (02:20)
04. Julien Dans L'Ascenseur (02:11)
05. Florence Sur Les Champs-Elysees (02:53)
06. Diner Au Motel (03:59)
07. Evasion De Julien (00:55)
08. Visite Du Vigile (02:06)
09. Au Bar Du Petit Bac (02:54)
10. Chez Le Photographe Du Motel (03:55)

Somethin' Else (by Cannonball Adderley):

11. Atumn Leaves (11:01)
12. Love For Sale (07:06)
13. Somethin' Else (08:16)
14. One For Daddy-O (08:27)
15. Dancing In The Dark (04:07)


Exact Audio Copy V1.0 beta 6 from 9. April 2015

EAC extraction logfile from 7. June 2015, 3:52

Miles Davis / Kind Of Blue [2010, NOT2CD335]

Used drive : ASUS DRW-22B3S Adapter: 1 ID: 0

Read mode : Secure
Utilize accurate stream : Yes
Defeat audio cache : Yes
Make use of C2 pointers : No

Read offset correction

: 6
Overread into Lead-In and Lead-Out : No
Fill up missing offset samples with silence : Yes
Delete leading and trailing silent blocks : No
Null samples used in CRC calculations : Yes
Used interface
: Native Win32 interface for Win NT & 2000
Gap handling
: Appended to previous track

Used output format : User Defined Encoder
Selected bitrate : 768 kBit/s
Quality : High
Add ID3 tag : No
Command line compressor : C:\Program Files\Exact Audio Copy\FLAC\FLAC.EXE
Additional command line options : -V -8 -T "Genre=%genre%" -T "Artist=%artist%" -T "Title=%title%" -T "Album=%albumtitle%" -T "Date=%year%" -T "Tracknumber=%tracknr%" -T "Comment=%comment%" %source%

TOC of the extracted CD Track | Start | Length | Start sector | End sector
1 | 0:00.00 | 9:25.72 | 0 | 42446 2 | 9:25.72 | 9:48.74 | 42447 | 86620 3 | 19:14.71 | 5:39.29 | 86621 | 112074 4 | 24:54.25 | 11:35.54 | 112075 | 164253 5 | 36:30.04 | 9:27.53 | 164254 | 206831

Track 1 Filename H:\g.y.m\Miles Davis - Kind Of Blue (1959) [2010, NOT2CD335]\CD 1\01. So What.wav Pre-gap length 0:00:02.00 Peak level 98.4 %
Extraction speed 6.0 X
Track quality 100.0 %
Test CRC 0AFA0110
Copy CRC 0AFA0110
Accurately ripped (confidence 9) [A4204545] (AR v2)
Copy OK

Track 2 Filename H:\g.y.m\Miles Davis - Kind Of Blue (1959) [2010, NOT2CD335]\CD 1\02. Freddie Freeloader.wav Pre-gap length 0:00:02.58 Peak level 98.6 %
Extraction speed 6.8 X
Track quality 99.9 %
Test CRC E29D3779
Copy CRC E29D3779
Accurately ripped (confidence 9) [2BE3D2D2] (AR v2)
Copy OK

Track 3 Filename H:\g.y.m\Miles Davis - Kind Of Blue (1959) [2010, NOT2CD335]\CD 1\03. Blue In Green.wav Pre-gap length 0:00:02.58 Peak level 98.2 %
Extraction speed 7.9 X
Track quality 100.0 %
Test CRC 80768D45
Copy CRC 80768D45
Accurately ripped (confidence 9) [5374D234] (AR v2)
Copy OK

Track 4 Filename H:\g.y.m\Miles Davis - Kind Of Blue (1959) [2010, NOT2CD335]\CD 1\04. All Blues.wav Pre-gap length 0:00:02.58 Peak level 98.3 %
Extraction speed 9.2 X
Track quality 100.0 %
Test CRC F603B547
Copy CRC F603B547
Accurately ripped (confidence 9) [2E8895E2] (AR v2)
Copy OK

Track 5 Filename H:\g.y.m\Miles Davis - Kind Of Blue (1959) [2010, NOT2CD335]\CD 1\05. Flamenco Sketches.wav Pre-gap length 0:00:02.58 Peak level 98.3 %
Extraction speed 9.1 X
Track quality 99.9 %
Test CRC A2B8DD9B
Copy CRC A2B8DD9B
Accurately ripped (confidence 9) 0315D71 (AR v2)
Copy OK

All tracks accurately ripped

No errors occurred

End of status report

==== Log checksum 88CE4184123F7294560FA6102F1FDAE942C7E3D0A819E71C3CC31195CF930A3F ====

foobar2000 1.3.8 / Dynamic Range Meter 1.1.1
log date: 2015-06-10 16:44:19

------
Analyzed: Miles Davis / Kind Of Blue [2010, NOT2CD335]
------

DR Peak RMS Duration Track
------
DR10 -0.14 dB -13.93 dB 9:26 01-So What
DR10 -0.12 dB -13.60 dB 9:49 02-Freddie Freeloader
DR12 -0.16 dB -17.20 dB 5:39 03-Blue In Green
DR12 -0.14 dB -15.13 dB 11:36 04-All Blues
DR13 -0.15 dB -17.65 dB 9:28 05-Flamenco Sketches
------

Number of tracks: 5
Official DR value: DR11

Samplerate: 44100 Hz
Channels: 2
Bits per sample: 16
Bitrate: 753 kbps
Codec: FLAC

Exact Audio Copy V1.0 beta 6 from 9. April 2015

EAC extraction logfile from 7. June 2015, 4:29

Miles Davis / Ascenseur Pour L'Échefaud/Somethin' Else [NOT2CD335]

Used drive : ASUS DRW-22B3S Adapter: 1 ID: 0

Read mode : Secure
Utilize accurate stream : Yes
Defeat audio cache : Yes
Make use of C2 pointers : No

Read offset correction

: 6
Overread into Lead-In and Lead-Out : No
Fill up missing offset samples with silence : Yes
Delete leading and trailing silent blocks : No
Null samples used in CRC calculations : Yes
Used interface
: Native Win32 interface for Win NT & 2000
Gap handling
: Appended to previous track

Used output format : User Defined Encoder
Selected bitrate : 768 kBit/s
Quality : High
Add ID3 tag : No
Command line compressor : C:\Program Files\Exact Audio Copy\FLAC\FLAC.EXE
Additional command line options : -V -8 -T "Genre=%genre%" -T "Artist=%artist%" -T "Title=%title%" -T "Album=%albumtitle%" -T "Date=%year%" -T "Tracknumber=%tracknr%" -T "Comment=%comment%" %source%

TOC of the extracted CD Track | Start | Length | Start sector | End sector
1 | 0:00.00 | 2:50.28 | 0 | 12777 2 | 2:50.28 | 2:11.66 | 12778 | 22668 3 | 5:02.19 | 2:20.05 | 22669 | 33173 4 | 7:22.24 | 2:11.08 | 33174 | 43006 5 | 9:33.32 | 2:53.07 | 43007 | 55988 6 | 12:26.39 | 3:59.31 | 55989 | 73944 7 | 16:25.70 | 0:55.42 | 73945 | 78111 8 | 17:21.37 | 2:06.29 | 78112 | 87590 9 | 19:27.66 | 2:54.65 | 87591 | 100705
10 | 22:22.56 | 3:55.58 | 100706 | 118388
11 | 26:18.39 | 11:01.04 | 118389 | 167967
12 | 37:19.43 | 7:06.40 | 167968 | 199957
13 | 44:26.08 | 8:16.42 | 199958 | 237199
14 | 52:42.50 | 8:27.57 | 237200 | 275281
15 | 61:10.32 | 4:07.03 | 275282 | 293809

Track 1 Filename H:\g.y.m\Miles Davis - Kind Of Blue (1959) [2010, NOT2CD335]\CD 2\01. Générique.wav Pre-gap length 0:00:02.00 Peak level 98.2 %
Extraction speed 5.0 X
Track quality 100.0 %
Test CRC D9E96018
Copy CRC D9E96018
Accurately ripped (confidence 8) [111EAC1A] (AR v2)
Copy OK

Track 2 Filename H:\g.y.m\Miles Davis - Kind Of Blue (1959) [2010, NOT2CD335]\CD 2\02. L'Assassinat De Carala.wav Pre-gap length 0:00:02.58 Peak level 98.3 %
Extraction speed 5.0 X
Track quality 100.0 %
Test CRC 4E83A056
Copy CRC 4E83A056
Accurately ripped (confidence 8) [E2E7E70B] (AR v2)
Copy OK

Track 3 Filename H:\g.y.m\Miles Davis - Kind Of Blue (1959) [2010, NOT2CD335]\CD 2\03. Sur L'Autoroute.wav Pre-gap length 0:00:02.58 Peak level 98.2 %
Extraction speed 4.0 X
Track quality 99.9 %
Test CRC DA2B7872
Copy CRC DA2B7872
Accurately ripped (confidence 8) [99A99D5B] (AR v2)
Copy OK

Track 4 Filename H:\g.y.m\Miles Davis - Kind Of Blue (1959) [2010, NOT2CD335]\CD 2\04. Julien Dans L'Ascenseur.wav Pre-gap length 0:00:02.58 Peak level 98.2 %
Extraction speed 4.1 X
Track quality 99.9 %
Test CRC 80AA6E81
Copy CRC 80AA6E81
Accurately ripped (confidence 8) [992F8D1C] (AR v2)
Copy OK

Track 5 Filename H:\g.y.m\Miles Davis - Kind Of Blue (1959) [2010, NOT2CD335]\CD 2\05. Florence Sur Les Champs-Élysées.wav Pre-gap length 0:00:02.58 Peak level 98.3 %
Extraction speed 6.1 X
Track quality 100.0 %
Test CRC C396F5D7
Copy CRC C396F5D7
Accurately ripped (confidence 8) [50E79C93] (AR v2)
Copy OK

Track 6 Filename H:\g.y.m\Miles Davis - Kind Of Blue (1959) [2010, NOT2CD335]\CD 2\06. Diner Au Motel.wav Pre-gap length 0:00:02.58 Peak level 98.3 %
Extraction speed 6.8 X
Track quality 100.0 %
Test CRC EA5EE4B4
Copy CRC EA5EE4B4
Accurately ripped (confidence 8) [4CEE79D1] (AR v2)
Copy OK

Track 7 Filename H:\g.y.m\Miles Davis - Kind Of Blue (1959) [2010, NOT2CD335]\CD 2\07. Évasion De Julien.wav Pre-gap length 0:00:02.58 Peak level 85.9 %
Extraction speed 4.8 X
Track quality 100.0 %
Test CRC E8566C91
Copy CRC E8566C91
Accurately ripped (confidence 8) [A74604C9] (AR v2)
Copy OK

Track 8 Filename H:\g.y.m\Miles Davis - Kind Of Blue (1959) [2010, NOT2CD335]\CD 2\08. Visite Du Vigile.wav Pre-gap length 0:00:02.58 Peak level 98.3 %
Extraction speed 6.5 X
Track quality 100.0 %
Test CRC 6CBE2974
Copy CRC 6CBE2974
Accurately ripped (confidence 8) [1582F45D] (AR v2)
Copy OK

Track 9 Filename H:\g.y.m\Miles Davis - Kind Of Blue (1959) [2010, NOT2CD335]\CD 2\09. Au Bar Du Petit Bac.wav Pre-gap length 0:00:02.58 Peak level 98.3 %
Extraction speed 7.1 X
Track quality 100.0 %
Test CRC 1252E8F0
Copy CRC 1252E8F0
Accurately ripped (confidence 8) [5C6AAA4B] (AR v2)
Copy OK

Track 10 Filename H:\g.y.m\Miles Davis - Kind Of Blue (1959) [2010, NOT2CD335]\CD 2\10. Chez Le Photographe Du Motel.wav Pre-gap length 0:00:02.58 Peak level 97.2 %
Extraction speed 7.8 X
Track quality 100.0 %
Test CRC C12072BD
Copy CRC C12072BD
Accurately ripped (confidence 8) [FA40703B] (AR v2)
Copy OK

Track 11 Filename H:\g.y.m\Miles Davis - Kind Of Blue (1959) [2010, NOT2CD335]\CD 2\11. Atumn Leaves.wav Pre-gap length 0:00:02.58 Peak level 98.3 %
Extraction speed 9.2 X
Track quality 100.0 %
Test CRC 9E339AEE
Copy CRC 9E339AEE
Accurately ripped (confidence 8) [EF3D7E7E] (AR v2)
Copy OK

Track 12 Filename H:\g.y.m\Miles Davis - Kind Of Blue (1959) [2010, NOT2CD335]\CD 2\12. Love For Sale.wav Pre-gap length 0:00:02.58 Peak level 98.5 %
Extraction speed 9.7 X
Track quality 100.0 %
Test CRC 76517244
Copy CRC 76517244
Accurately ripped (confidence 8) [D70A4701] (AR v2)
Copy OK

Track 13 Filename H:\g.y.m\Miles Davis - Kind Of Blue (1959) [2010, NOT2CD335]\CD 2\13. Somethin' Else.wav Pre-gap length 0:00:02.58 Peak level 98.4 %
Extraction speed 10.5 X
Track quality 100.0 %
Test CRC 881D6B83
Copy CRC 881D6B83
Accurately ripped (confidence 8) [1CEB4488] (AR v2)
Copy OK

Track 14 Filename H:\g.y.m\Miles Davis - Kind Of Blue (1959) [2010, NOT2CD335]\CD 2\14. One For Daddy-O.wav Pre-gap length 0:00:02.58 Peak level 98.4 %
Extraction speed 11.1 X
Track quality 100.0 %
Test CRC 7FDB2459
Copy CRC 7FDB2459
Accurately ripped (confidence 8) [3F6A03B0] (AR v2)
Copy OK

Track 15 Filename H:\g.y.m\Miles Davis - Kind Of Blue (1959) [2010, NOT2CD335]\CD 2\15. Dancing In The Dark.wav Pre-gap length 0:00:02.58 Peak level 98.3 %
Extraction speed 10.6 X
Track quality 100.0 %
Test CRC 196CB8E1
Copy CRC 196CB8E1
Accurately ripped (confidence 8) [896B6A29] (AR v2)
Copy OK

All tracks accurately ripped

No errors occurred

End of status report

==== Log checksum 24170D7A58053E9C46EA861FF910FEAB8F8B99815AF4A88B0245226A43C6712F ====

foobar2000 1.3.8 / Dynamic Range Meter 1.1.1
log date: 2015-06-10 16:45:48

------
Analyzed: Miles Davis / Ascenseur Pour L'Echefaud - Somethin' Else [NOT2CD335]
------

DR Peak RMS Duration Track
------
DR8 -0.15 dB -13.31 dB 2:50 01-Generique
DR12 -0.14 dB -14.48 dB 2:12 02-L'Assassinat De Carala
DR11 -0.15 dB -13.35 dB 2:20 03-Sur L'Autoroute
DR13 -0.15 dB -17.58 dB 2:11 04-Julien Dans L'Ascenseur
DR9 -0.15 dB -13.85 dB 2:53 05-Florence Sur Les Champs-Elysees
DR9 -0.14 dB -11.00 dB 3:59 06-Diner Au Motel
DR10 -1.31 dB -14.53 dB 0:56 07-Evasion De Julien
DR8 -0.15 dB -12.07 dB 2:06 08-Visite Du Vigile
DR11 -0.15 dB -13.42 dB 2:55 09-Au Bar Du Petit Bac
DR11 -0.25 dB -15.58 dB 3:56 10-Chez Le Photographe Du Motel
DR11 -0.14 dB -14.07 dB 11:01 11-Atumn Leaves
DR9 -0.13 dB -11.39 dB 7:07 12-Love For Sale
DR10 -0.14 dB -11.84 dB 8:17 13-Somethin' Else
DR10 -0.14 dB -12.69 dB 8:28 14-One For Daddy-O
DR13 -0.15 dB -15.20 dB 4:07 15-Dancing In The Dark
------

Number of tracks: 15
Official DR value: DR10

Samplerate: 44100 Hz
Channels: 2
Bits per sample: 16
Bitrate: 730 kbps
Codec: FLAC

http://i72.fastpic.ru/big/2015/0612/53/9280393e182b643030e65b784f742853.jpg

http://i69.fastpic.ru/big/2015/0612/81/a638b2dfbd5bfc9d6c8a3b261ce83c81.jpg



DOWNLOAD LINKS:
Buy Premium To Support Me & Get Resumable Support & Max Speed


Links are Interchangeable - No Password - Single Extraction

 
 
 
Dear visitor, you went to the site as an unregistered user. We encourage you to register or enter the site under your name.
 
   
 
 (Votes #: 0)