2013Zone For Latest Downloads

 
     
 
Legal Downloads » Music » Miklos Rozsa - Ben-Hur: Complete Soundtrack Collection (2012) 5 CD Set
Menu
Home Applications
Games Movies
Music TV Shows
Torrents Graphics

Sitemap

RSS
 
Advanced Search
Last News
Site Info
Top Contributors:
  1    supper88 32766
  2    admin 32761
  3    Whisky 10080
  4    Shark_ 8911
  5    creativelivenew 8706
  6    whathesupa 2799
  7    candymypost 840
  8    hvnteam 629
  9    vuong87 3


Articles:
  This Hour: 0
  Today: 0
  This Month: 0
  All Time: 515457


Torrents:
  Today: 0
  Yesterday: 0
  All Time: 156740


Membership:
  Registered Today :0
  This Hour:0
  This Month:0
  Total:14
  Banned:1

{online}
{inform_torrent}
Friend:
Full Download Scripts
Torrent Download
Trend
Trend

Search In Site

Music : Miklos Rozsa - Ben-Hur: Complete Soundtrack Collection (2012) 5 CD Set
 
http://i69.fastpic.ru/big/2015/0624/df/ae1218313b17485612df20a0bae8a1df.jpg

Miklos Rozsa - Ben-Hur: Complete Soundtrack Collection (2012) 5 CD Set
EAC | FLAC | Image (Cue&Log) ~ 2.12 Gb (incl 5%) | Mp3 (CBR320) ~ Mb (incl 5%) | Scans included
Genre: Soundtrack, Score | Label: Film Score Montly | # Vol. 15, No. 1 | Time: 06:06:40

"Limited-edition five-CD set from Film Score Monthly of the Oscar-winning score for the 1959 film starring Charlton Heston, Jack Hawkins, and Stephen Boyd. Discs 1 and 2 feature every film cue, every outtake, every alternate, and every additional take preserved by the studio, mastered from the original six-track recordings, augmented by rare material from the Miklos Rozsa collection at Syracuse University. In addition the set contains all three LP recordings released by MGM Records in conjunction with the film--including the premiere CD release of the rare (and controversial) Lion label disc. Disc 3 features the Savina album (conducted by Carlo Savina) and Act 1 alternates. Disc 4 features the first Kloss album (conducted by Erich Kloss) and Act 2 alternates. Disc 5 features the second Kloss album and additional alternates and bonus tracks. Also included is a 28-page booklet."

"It has taken over half a century, but Miklós Rózsa's iconic score for William Wyler's 1959 epic, Ben-Hur, arrives in complete form at last-and "complete" in the best FSM sense of the word. This 5CD "Complete Soundtrack Collection" includes every film cue, every outtake, every alternate and every additional take preserved by the studio, mastered from the original six-track recordings, augmented by rare material from the Miklós Rózsa collection at Syracuse University. In addition, the set contains all three LP recordings released by MGM Records in conjunction with the film-including the premiere CD release of the rare (and controversial) Lion label disc.
Rózsa's mammoth and colorfully orchestrated score-over two hours long-is rich in thematic material. Even so, over six hours of music from a single film might be a bit much for continuous listening, so FSM has organized the material into six different programs. Disc 1 and 2 are devoted to the full score (with outtakes); discs 3 and 4 present alternates from Acts One and Two in film order; disc 5 features still more alternates and bonus tracks (including a "do-over" of a Quo Vadis cue first released in FSM's 15CD Miklós Rózsa Treasury). The three "soundtrack" LPs (all re-recordings made in Europe) make up the first half of discs 3-5.

Befitting its scope, nearly 20,000 words of text accompany this "Monumentum Maximum" edition. About 4,000 of them appear in the 28-page booklet, beautifully designed by FSM art director Joe Sikoryak and featuring track lists, film stills, poster art, album covers and essays on film (by Jeff Bond) and score (by Frank K. DeWald). In order to make the set more affordable, FSM is providing the rest of the notes online-for free. These include a track-by-track analysis of the film score, original LP liner notes and an explication of the various alternates and album versions.

With audio restored, remixed and assembled by Mike Matessino and Neil S. Bulk and with digital mastering by Doug Schwartz (a veteran of Rhino's distinguished 2CD set from 1996), this stunning release is the capstone of FSM's commitment (now totaling 40 discs) to this outstanding Golden Age composer."




Tracklist:

CD1:

01. Overture (06:34)
02. Anno Domini (01:32)
03. Star Of Bethlehem / Adoration Of The Magi (03:32)
04. Shofar Call (00:15)
05. Fanfare To Prelude / Prelude / Marcia Romana (04:01)
06. Spirit And Sword (00:51)
07. Salute For Messala (00:12)
08. Friendship (04:23)
09. The House Of Hur (01:44)
10. Conflict (01:42)
11. Esther (02:36)
12. The Unknown Future (Outtake) (00:44)
13. Love Theme / Ring For Freedom (04:49)
14. Salute For Gratus (00:36)
15. Gratus' Entry To Jerusalem (01:59)
16. Arrest (Outtake) (01:20)
17. Reminiscences (01:49)
18. Condemned (Outtake) (00:57)
19. Escape (Outtake) (02:08)
20. Vengeance (00:50)
21. The Prison - Part One / The Prison - Part Two (Partial Outtake) (00:48)
22. The Desert / Exhaustion / The Prince Of Peace / Roman Galley (07:33)
23. Salute Аor Arrius (00:24)
24. Quintus Arrius (00:42)
25. Roman Fleet (Partial Outtake) (01:05)
26. The Galley (03:18)
27. Rest (01:21)
28. Battle Preparations / The Pirate Fleet / Attack! / Ramming Speed / Battle / R... (09:52)
29. Roman Sails (00:50)
30. The Rowers (00:28)
31. Victory Parade (02:24)
32. Victory Finale (00:27)

CD2:

01. Fertility Dance (01:03)
02. Arrius' Party (01:16)
03. Nostalgia / Farewell To Rome (02:13)
04. A Barren Coast (Outtake) (00:28)
05. Judea / Balthazar (02:27)
06. Balthazar's World (01:59)
07. Homecoming (01:24)
08. Memories / Hatred (04:24)
09. Lepers (01:04)
10. Return / Promise (05:23)
11. Sorrow And Intermission (01:28)
12. Entr'Acte (03:49)
13. Panem Et Circenses (Version I) (00:54)
14. Circus Fanfares Nos. 1-4 (00:44)
15. Panem Et Circenses (Version II) (00:46)
16. New Fanfare For Circus Parade (Parade Of The Charioteers) (03:16)
17. Circus Fanfare No. 6 (Fanfare For Start Of Race) (00:14)
18. Panem Et Circenses (Version III) (01:00)
19. Circus Fanfare No. 7 (Ben-Hur Crowned) (00:18)
20. Bitter Triumph (00:48)
21. Aftermath (01:18)
22. Valley Of Lepers / The Search (02:55)
23. The Uncleans (02:30)
24. Road Of Sorrow (02:50)
25. The Mount / The Sermon (01:21)
26. Frustration (01:18)
27. Valley Of The Dead / Tirzah Saved (04:03)
28. The Procession To Calvary / The Bearing Of The Cross / Recognition (07:08)
29. Aftermath (Crucifixion) (02:24)
30. Golgotha (00:56)
31. Shadow Of A Storm (Outtake) (01:02)
32. The Miracle / Finale (04:53)

CD3:

01. Prelude (03:26)
02. The Adoration Of The Magi (02:17)
03. Roman March (01:23)
04. Friendship (01:41)
05. Love Theme Of Ben-Hur (02:52)
06. The Burning Desert (05:05)
07. The Rowing Of The Galley Slaves (02:48)
08. Naval Battle (02:47)
09. Return To Judea (02:06)
10. Victory Parade (02:16)
11. The Mother's Love (02:41)
12. The Lepers' Search For The Christ (02:33)
13. The Procession To Calvary (04:33)
14. The Miracle And Finale (03:44)
15. Star Of Bethlehem (Alternate Chorus) (01:34)
16. Adoration Of The Magi (Alternate Chorus) (02:07)
17. Prelude (Alternate Take) (02:01)
18. Spirit And Sword (Alternate I) (00:58)
19. Revenge (Outtake) (01:24)
20. The Desert / Exhaustion / The Prince Of Peace / Roman Galley (Alternate Seque... (07:37)
21. Roman Fleet (Alternate) (01:07)
22. The Galley (Alternate) (03:16)
23. Rest (Alternate) (00:57)
24. Battle Preparations - Part Two (Alternate) (00:51)
25. Roman Sails (Alternate) (00:50)
26. Victory Parade (Short Version) (01:37)
27. Fertility Dance (Orchestra Only) (01:00)
28. Arrius' Party (Long Version) (01:45)
29. Judea (Alternate) (02:58)
30. Homecoming (Alternate) (01:45)
31. Sorrow (Alternate I) (01:05)
32. Intermission (Alternate I) (00:33)

CD4:

01. Prelude (03:27)
02. The Adoration Of The Magi (02:12)
03. Roman March (01:17)
04. Friendship (01:46)
05. Love Theme Of Ben-Hur (02:43)
06. The Burning Desert (05:03)
07. The Rowing Of The Galley Slaves (02:51)
08. Naval Battle (02:51)
09. Return To Judea (02:15)
10. Victory Parade (02:15)
11. The Mother's Love (02:29)
12. The Lepers' Search For The Christ (02:27)
13. The Procession To Calvary (04:30)
14. The Miracle And Finale (03:44)
15. Entr'Acte (Alternate) (03:51)
16. Panem Et Circenses (Complete Version) (01:12)
17. Circus Parade (Parade Of The Charioteers) (Film Edit) (02:15)
18. Aftermath (Alternate I) (01:34)
19. The Search (Alternate) (01:42)
20. Road Of Sorrow (Alternate) (02:51)
21. The Sermon (Alternate I) (00:36)
22. Valley Of The Dead / Tirzah Saved (Alternate) (04:04)
23. The Procession To Calvary / The Bearing Of The Cross / Recognition (Alternate... (07:19)
24. Aftermath (Alternate II) (02:23)
25. Golgotha (Alternate I) (01:35)
26. The Miracle / Finale (Alternate) (04:31)
27. Entr'Acte (Original Version) (03:36)

CD5:

01. Overture (04:00)
02. Star Of Bethlehem (01:54)
03. Gratus' Entry Into Jerusalem (03:32)
04. The House Of Hur (01:57)
05. Messala's Revenge (03:30)
06. Fertility Dance (01:28)
07. Farewell To Rome (02:13)
08. Arrius' Party (01:33)
09. Parade Of The Charioteers (03:30)
10. Bread And Circus March (01:18)
11. Death Of Messala (02:52)
12. Memories (02:41)
13. Sermon On The Mount (01:53)
14. Valley Of The Dead (02:16)
15. Golgotha (02:47)
16. The Christ Theme From Ben-Hur (Alleluia) (02:48)
17. Star Of Bethlehem / Adoration Of The Magi (Orchestra Only) (03:33)
18. Star Of Bethlehem (Chorus Only - Alternate Version) (01:35)
19. Adoration Of The Magi (Chorus Only - Alternate II) (02:06)
20. Adoration Of The Magi (Chorus Only - Alternate III) (02:05)
21. Spirit And Sword (Alternate II) (00:40)
22. Gratus' Entry To Jerusalem (Long Version) (02:02)
23. Revenge (Alternate) (01:25)
24. Arrius' Party (Fragments) (00:54)
25. Sorrow (Alternate II) (01:07)
26. Intermission (Alternate II) (00:23)
27. Entr'Acte (Original Version - Alternate Take) (03:39)
28. Aftermath (Alternate III) (00:37)
29. Aftermath (Alternate IV) (00:37)
30. The Sermon (Alternate II) (00:22)
31. The Sermon (Alternate III) (00:21)
32. The Sermon (Alternate IV) (00:34)
33. The Sermon (Alternate V) (00:40)
34. Golgotha (Alternate II) (01:28)
35. Miracle (Alternate II) (01:39)
36. Finale (Chorus Only - Alternate I) (01:17)
37. Finale (Chorus Only - Alternate II) (00:36)
38. Finale (Chorus Only - Alternate III) (01:06)
39. Love Theme (Demo Version) (02:20)
40. Harun Al Rozsad (02:09)
41. Quo Vadis Prelude (With Chimes) / Drums (Appian Way) (01:39)


Exact Audio Copy V1.0 beta 3 from 29. August 2011

EAC extraction logfile from 31. March 2013, 11:42

Miklos Rozsa / Ben-Hur (Disc 1)

Used drive : TSSTcorpCDDVDW SH-S202H Adapter: 0 ID: 0

Read mode : Secure
Utilize accurate stream : Yes
Defeat audio cache : Yes
Make use of C2 pointers : No

Read offset correction

: 6
Overread into Lead-In and Lead-Out : No
Fill up missing offset samples with silence : Yes
Delete leading and trailing silent blocks : No
Null samples used in CRC calculations : Yes
Used interface
: Native Win32 interface for Win NT & 2000

Used output format : Internal WAV Routines
Sample format : 44.100 Hz; 16 Bit; Stereo

TOC of the extracted CD Track | Start | Length | Start sector | End sector
1 | 0:00.00 | 6:34.26 | 0 | 29575 2 | 6:34.26 | 1:32.06 | 29576 | 36481 3 | 8:06.32 | 3:32.69 | 36482 | 52450 4 | 11:39.26 | 0:15.21 | 52451 | 53596 5 | 11:54.47 | 4:01.27 | 53597 | 71698 6 | 15:55.74 | 0:51.69 | 71699 | 75592 7 | 16:47.68 | 0:12.16 | 75593 | 76508 8 | 17:00.09 | 4:23.42 | 76509 | 96275 9 | 21:23.51 | 1:44.42 | 96276 | 104117
10 | 23:08.18 | 1:42.68 | 104118 | 111835
11 | 24:51.11 | 2:36.13 | 111836 | 123548
12 | 27:27.24 | 0:44.73 | 123549 | 126921
13 | 28:12.22 | 4:49.53 | 126922 | 148649
14 | 33:02.00 | 0:36.40 | 148650 | 151389
15 | 33:38.40 | 1:59.47 | 151390 | 160361
16 | 35:38.12 | 1:20.05 | 160362 | 166366
17 | 36:58.17 | 1:49.57 | 166367 | 174598
18 | 38:47.74 | 0:57.44 | 174599 | 178917
19 | 39:45.43 | 2:08.63 | 178918 | 188580
20 | 41:54.31 | 0:50.03 | 188581 | 192333
21 | 42:44.34 | 0:48.49 | 192334 | 195982
22 | 43:33.08 | 7:33.42 | 195983 | 229999
23 | 51:06.50 | 0:24.06 | 230000 | 231805
24 | 51:30.56 | 0:42.70 | 231806 | 235025
25 | 52:13.51 | 1:05.32 | 235026 | 239932
26 | 53:19.08 | 3:18.24 | 239933 | 254806
27 | 56:37.32 | 1:21.69 | 254807 | 260950
28 | 57:59.26 | 9:52.41 | 260951 | 305391
29 | 67:51.67 | 0:50.05 | 305392 | 309146
30 | 68:41.72 | 0:28.52 | 309147 | 311298
31 | 69:10.49 | 2:24.40 | 311299 | 322138
32 | 71:35.14 | 0:27.04 | 322139 | 324167

Range status and errors

Selected range Filename D:\Miklos Rozsa - Ben-Hur\Miklos Rozsa - Ben-Hur (Disc 1).wav Peak level 99.8 %
Extraction speed 8.0 X
Range quality 100.0 %
Test CRC C7067C5F
Copy CRC C7067C5F
Copy OK

No errors occurred


AccurateRip summary

Track 1 accurately ripped (confidence 2) [E71D55A3] (AR v2)
Track 2 accurately ripped (confidence 2) [4172B7C8] (AR v2)
Track 3 accurately ripped (confidence 2) [863B9A45] (AR v2)
Track 4 accurately ripped (confidence 2) 866C642 (AR v2)
Track 5 accurately ripped (confidence 2) [4297E24D] (AR v2)
Track 6 accurately ripped (confidence 2) [FD2B1193] (AR v2)
Track 7 accurately ripped (confidence 2) [48B405E1] (AR v2)
Track 8 accurately ripped (confidence 2) [D5D65821] (AR v2)
Track 9 accurately ripped (confidence 2) [4571CA7F] (AR v2)
Track 10 accurately ripped (confidence 2) 6A258D6 (AR v2)
Track 11 accurately ripped (confidence 2) [7869DB6A] (AR v2)
Track 12 accurately ripped (confidence 2) [A0B910C1] (AR v2)
Track 13 accurately ripped (confidence 2) C402581 (AR v2)
Track 14 accurately ripped (confidence 2) [0E931363] (AR v2)
Track 15 accurately ripped (confidence 2) [E68A1855] (AR v2)
Track 16 accurately ripped (confidence 2) [9791C968] (AR v2)
Track 17 accurately ripped (confidence 2) [69709641] (AR v2)
Track 18 accurately ripped (confidence 2) [712F2C88] (AR v2)
Track 19 accurately ripped (confidence 2) [3D2D8DAF] (AR v2)
Track 20 accurately ripped (confidence 2) [EE3E70E3] (AR v2)
Track 21 accurately ripped (confidence 2) [0234A6C2] (AR v2)
Track 22 accurately ripped (confidence 2) [D85E46AF] (AR v2)
Track 23 accurately ripped (confidence 2) [5D0F1ECF] (AR v2)
Track 24 accurately ripped (confidence 2) [AD047010] (AR v2)
Track 25 accurately ripped (confidence 2) [EF88C809] (AR v2)
Track 26 accurately ripped (confidence 2) [8C8DF0ED] (AR v2)
Track 27 accurately ripped (confidence 2) [E4D1B61E] (AR v2)
Track 28 accurately ripped (confidence 2) [0E8FB3F2] (AR v2)
Track 29 accurately ripped (confidence 2) [EE8F4821] (AR v2)
Track 30 accurately ripped (confidence 2) [2EEEDC29] (AR v2)
Track 31 accurately ripped (confidence 2) [248FFEE6] (AR v2)
Track 32 accurately ripped (confidence 3) [E0FA85F4] (AR v2)

All tracks accurately ripped

End of status report

==== Log checksum F32C56051A8DA6D74206062DCB1B7AD40ECA96AD805FBEACF123D4E3CE7949B9 ====

foobar2000 1.2 / Dynamic Range Meter 1.1.1
log date: 2015-06-20 14:28:07

------
Analyzed: Miklos Rozsa / Ben-Hur (Disc 1)
------

DR Peak RMS Duration Track
------
DR11 -0.01 dB -13.86 dB 6:34 01-Overture
DR10 -0.01 dB -14.91 dB 1:32 02-Anno Domini
DR11 -0.01 dB -16.22 dB 3:33 03-Star Of Bethlehem / Adoration Of The Magi
DR6 -4.01 dB -16.34 dB 0:15 04-Shofar Call
DR10 -0.01 dB -13.12 dB 4:01 05-Fanfare To Prelude / Prelude / Marcia Romana
DR11 -0.01 dB -13.83 dB 0:52 06-Spirit And Sword
DR10 -1.52 dB -15.01 dB 0:12 07-Salute For Messala
DR12 -0.01 dB -16.16 dB 4:24 08-Friendship
DR11 -0.24 dB -16.12 dB 1:45 09-The House Of Hur
DR12 -0.01 dB -15.77 dB 1:43 10-Conflict
DR11 -0.01 dB -14.10 dB 2:36 11-Esther
DR9 -0.28 dB -15.39 dB 0:45 12-The Unknown Future (Outtake)
DR11 -0.01 dB -14.95 dB 4:50 13-Love Theme / Ring For Freedom
DR10 -0.01 dB -14.65 dB 0:37 14-Salute For Gratus
DR11 -0.01 dB -12.86 dB 2:00 15-Gratus' Entry To Jerusalem
DR11 -0.01 dB -13.48 dB 1:20 16-Arrest (Outtake)
DR11 -0.01 dB -14.20 dB 1:50 17-Reminiscences
DR11 -0.01 dB -14.23 dB 0:58 18-Condemned (Outtake)
DR10 -0.01 dB -12.85 dB 2:09 19-Escape (Outtake)
DR11 -0.01 dB -12.82 dB 0:50 20-Vengeance
DR10 -0.01 dB -13.79 dB 0:49 21-The Prison - Part One / The Prison - Part Two (Partial Outtake)
DR9 -0.01 dB -12.20 dB 7:34 22-The Desert / Exhaustion / The Prince Of Peace / Roman Galley
DR10 -1.26 dB -16.66 dB 0:24 23-Salute Аor Arrius
DR10 -0.01 dB -14.17 dB 0:43 24-Quintus Arrius
DR9 -0.01 dB -13.83 dB 1:05 25-Roman Fleet (Partial Outtake)
DR10 -0.01 dB -11.71 dB 3:18 26-The Galley
DR11 -0.01 dB -16.31 dB 1:22 27-Rest
DR10 -0.01 dB -12.36 dB 9:53 28-Battle Preparations / The Pirate Fleet / Attack! / Ramming Speed / Battle / R...
DR11 -0.01 dB -13.56 dB 0:50 29-Roman Sails
DR11 -0.01 dB -14.54 dB 0:29 30-The Rowers
DR8 -0.01 dB -10.00 dB 2:25 31-Victory Parade
DR10 -0.01 dB -12.88 dB 0:27 32-Victory Finale
------

Number of tracks: 32
Official DR value: DR10

Samplerate: 44100 Hz
Channels: 2
Bits per sample: 16
Bitrate: 784 kbps
Codec: FLAC

Exact Audio Copy V1.0 beta 3 from 29. August 2011

EAC extraction logfile from 31. March 2013, 12:08

Miklos Rozsa / Ben-Hur (Disc 2)

Used drive : TSSTcorpCDDVDW SH-S202H Adapter: 0 ID: 0

Read mode : Secure
Utilize accurate stream : Yes
Defeat audio cache : Yes
Make use of C2 pointers : No

Read offset correction

: 6
Overread into Lead-In and Lead-Out : No
Fill up missing offset samples with silence : Yes
Delete leading and trailing silent blocks : No
Null samples used in CRC calculations : Yes
Used interface
: Native Win32 interface for Win NT & 2000

Used output format : Internal WAV Routines
Sample format : 44.100 Hz; 16 Bit; Stereo

TOC of the extracted CD Track | Start | Length | Start sector | End sector
1 | 0:00.00 | 1:03.52 | 0 | 4776 2 | 1:03.52 | 1:16.34 | 4777 | 10510 3 | 2:20.11 | 2:13.72 | 10511 | 20557 4 | 4:34.08 | 0:28.15 | 20558 | 22672 5 | 5:02.23 | 2:27.34 | 22673 | 33731 6 | 7:29.57 | 1:59.46 | 33732 | 42702 7 | 9:29.28 | 1:24.25 | 42703 | 49027 8 | 10:53.53 | 4:24.65 | 49028 | 68892 9 | 15:18.43 | 1:04.33 | 68893 | 73725
10 | 16:23.01 | 5:23.23 | 73726 | 97973
11 | 21:46.24 | 1:28.13 | 97974 | 104586
12 | 23:14.37 | 3:49.20 | 104587 | 121781
13 | 27:03.57 | 0:54.07 | 121782 | 125838
14 | 27:57.64 | 0:44.02 | 125839 | 129140
15 | 28:41.66 | 0:46.13 | 129141 | 132603
16 | 29:28.04 | 3:16.29 | 132604 | 147332
17 | 32:44.33 | 0:14.05 | 147333 | 148387
18 | 32:58.38 | 1:00.03 | 148388 | 152890
19 | 33:58.41 | 0:18.66 | 152891 | 154306
20 | 34:17.32 | 0:48.05 | 154307 | 157911
21 | 35:05.37 | 1:18.66 | 157912 | 163827
22 | 36:24.28 | 2:55.68 | 163828 | 177020
23 | 39:20.21 | 2:30.32 | 177021 | 188302
24 | 41:50.53 | 2:50.59 | 188303 | 201111
25 | 44:41.37 | 1:21.27 | 201112 | 207213
26 | 46:02.64 | 1:18.52 | 207214 | 213115
27 | 47:21.41 | 4:03.55 | 213116 | 231395
28 | 51:25.21 | 7:08.71 | 231396 | 263566
29 | 58:34.17 | 2:24.12 | 263567 | 274378
30 | 60:58.29 | 0:56.13 | 274379 | 278591
31 | 61:54.42 | 1:02.04 | 278592 | 283245
32 | 62:56.46 | 4:53.11 | 283246 | 305231

Range status and errors

Selected range Filename D:\Miklos Rozsa - Ben-Hur\Miklos Rozsa - Ben-Hur (Disc 2).wav Peak level 99.8 %
Extraction speed 8.0 X
Range quality 100.0 %
Test CRC B44FC314
Copy CRC B44FC314
Copy OK

No errors occurred


AccurateRip summary

Track 1 accurately ripped (confidence 3) F65CD49 (AR v2)
Track 2 accurately ripped (confidence 3) [98106F85] (AR v2)
Track 3 accurately ripped (confidence 3) [14E799A2] (AR v2)
Track 4 accurately ripped (confidence 3) [D9288656] (AR v2)
Track 5 accurately ripped (confidence 3) [2124F415] (AR v2)
Track 6 accurately ripped (confidence 3) [1BF5EEC5] (AR v2)
Track 7 accurately ripped (confidence 3) [9CE6DA12] (AR v2)
Track 8 accurately ripped (confidence 3) B5FF448 (AR v2)
Track 9 accurately ripped (confidence 3) [7E3A05F5] (AR v2)
Track 10 accurately ripped (confidence 3) [68BA5DFA] (AR v2)
Track 11 accurately ripped (confidence 3) [82B4400B] (AR v2)
Track 12 accurately ripped (confidence 3) [8142F7CA] (AR v2)
Track 13 accurately ripped (confidence 3) [55EB3A0B] (AR v2)
Track 14 accurately ripped (confidence 3) [426EC47E] (AR v2)
Track 15 accurately ripped (confidence 3) [FD79FBA3] (AR v2)
Track 16 accurately ripped (confidence 3) [720D31C7] (AR v2)
Track 17 accurately ripped (confidence 3) [674C52EF] (AR v2)
Track 18 accurately ripped (confidence 3) [2097FAF0] (AR v2)
Track 19 accurately ripped (confidence 3) [5890E9E4] (AR v2)
Track 20 accurately ripped (confidence 3) C0413C7 (AR v2)
Track 21 accurately ripped (confidence 3) [817FC6B9] (AR v2)
Track 22 accurately ripped (confidence 3) [69DD28F1] (AR v2)
Track 23 accurately ripped (confidence 3) [0E9B18F5] (AR v2)
Track 24 accurately ripped (confidence 3) [F651E8E2] (AR v2)
Track 25 accurately ripped (confidence 3) [2D0F9A80] (AR v2)
Track 26 accurately ripped (confidence 3) [08385AE0] (AR v2)
Track 27 accurately ripped (confidence 3) [2B8D8418] (AR v2)
Track 28 accurately ripped (confidence 3) [E895150D] (AR v2)
Track 29 accurately ripped (confidence 3) [D27F8915] (AR v2)
Track 30 accurately ripped (confidence 3) [2D6AB2E2] (AR v2)
Track 31 accurately ripped (confidence 3) [5E4BCE97] (AR v2)
Track 32 accurately ripped (confidence 3) [7A76C49B] (AR v2)

All tracks accurately ripped

End of status report

==== Log checksum E35951C4A826F5FDB0248F7FD6A16D70160F551D482D12B637AAC269833336ED ====

foobar2000 1.2 / Dynamic Range Meter 1.1.1
log date: 2015-06-20 14:28:31

------
Analyzed: Miklos Rozsa / Ben-Hur (Disc 2)
------

DR Peak RMS Duration Track
------
DR11 -0.40 dB -13.31 dB 1:04 01-Fertility Dance
DR11 -1.07 dB -14.52 dB 1:16 02-Arrius' Party
DR11 -0.01 dB -15.63 dB 2:14 03-Nostalgia / Farewell To Rome
DR10 -1.31 dB -17.19 dB 0:28 04-A Barren Coast (Outtake)
DR10 -0.01 dB -14.63 dB 2:27 05-Judea / Balthazar
DR9 -0.01 dB -12.44 dB 2:00 06-Balthazar's World
DR10 -0.01 dB -13.99 dB 1:24 07-Homecoming
DR13 -0.10 dB -17.57 dB 4:25 08-Memories / Hatred
DR11 -0.01 dB -14.17 dB 1:04 09-Lepers
DR12 -0.01 dB -15.51 dB 5:23 10-Return / Promise
DR9 -0.01 dB -12.84 dB 1:28 11-Sorrow And Intermission
DR10 -0.01 dB -12.55 dB 3:49 12-Entr'Acte
DR10 -0.01 dB -11.69 dB 0:54 13-Panem Et Circenses (Version I)
DR11 -0.01 dB -13.00 dB 0:44 14-Circus Fanfares Nos. 1-4
DR10 -0.01 dB -12.85 dB 0:46 15-Panem Et Circenses (Version II)
DR12 -0.01 dB -13.97 dB 3:16 16-New Fanfare For Circus Parade (Parade Of The Charioteers)
DR11 -0.34 dB -14.89 dB 0:14 17-Circus Fanfare No. 6 (Fanfare For Start Of Race)
DR11 -0.96 dB -13.60 dB 1:00 18-Panem Et Circenses (Version III)
DR9 -3.37 dB -15.52 dB 0:19 19-Circus Fanfare No. 7 (Ben-Hur Crowned)
DR10 -0.01 dB -14.16 dB 0:48 20-Bitter Triumph
DR10 -0.01 dB -12.59 dB 1:19 21-Aftermath
DR11 -0.01 dB -15.03 dB 2:56 22-Valley Of Lepers / The Search
DR10 -0.74 dB -15.01 dB 2:30 23-The Uncleans
DR12 -0.01 dB -18.59 dB 2:51 24-Road Of Sorrow
DR11 -3.29 dB -18.65 dB 1:21 25-The Mount / The Sermon
DR12 -0.01 dB -17.97 dB 1:19 26-Frustration
DR11 -0.01 dB -16.25 dB 4:04 27-Valley Of The Dead / Tirzah Saved
DR11 -0.01 dB -13.44 dB 7:09 28-The Procession To Calvary / The Bearing Of The Cross / Recognition
DR12 -0.01 dB -16.57 dB 2:24 29-Aftermath (Crucifixion)
DR11 -0.46 dB -15.28 dB 0:56 30-Golgotha
DR11 -0.01 dB -14.52 dB 1:02 31-Shadow Of A Storm (Outtake)
DR11 -0.01 dB -14.57 dB 4:53 32-The Miracle / Finale
------

Number of tracks: 32
Official DR value: DR11

Samplerate: 44100 Hz
Channels: 2
Bits per sample: 16
Bitrate: 767 kbps
Codec: FLAC

Exact Audio Copy V1.0 beta 3 from 29. August 2011

EAC extraction logfile from 31. March 2013, 12:37

Miklos Rozsa / Ben-Hur (Disc 3)

Used drive : TSSTcorpCDDVDW SH-S202H Adapter: 0 ID: 0

Read mode : Secure
Utilize accurate stream : Yes
Defeat audio cache : Yes
Make use of C2 pointers : No

Read offset correction

: 6
Overread into Lead-In and Lead-Out : No
Fill up missing offset samples with silence : Yes
Delete leading and trailing silent blocks : No
Null samples used in CRC calculations : Yes
Used interface
: Native Win32 interface for Win NT & 2000

Used output format : Internal WAV Routines
Sample format : 44.100 Hz; 16 Bit; Stereo

TOC of the extracted CD Track | Start | Length | Start sector | End sector
1 | 0:00.00 | 3:26.42 | 0 | 15491 2 | 3:26.42 | 2:17.48 | 15492 | 25814 3 | 5:44.15 | 1:23.47 | 25815 | 32086 4 | 7:07.62 | 1:41.12 | 32087 | 39673 5 | 8:48.74 | 2:52.14 | 39674 | 52587 6 | 11:41.13 | 5:05.16 | 52588 | 75478 7 | 16:46.29 | 2:48.71 | 75479 | 88149 8 | 19:35.25 | 2:47.53 | 88150 | 100727 9 | 22:23.03 | 2:06.04 | 100728 | 110181
10 | 24:29.07 | 2:16.07 | 110182 | 120388
11 | 26:45.14 | 2:41.50 | 120389 | 132513
12 | 29:26.64 | 2:33.59 | 132514 | 144047
13 | 32:00.48 | 4:33.05 | 144048 | 164527
14 | 36:33.53 | 3:44.23 | 164528 | 181350
15 | 40:18.01 | 1:34.70 | 181351 | 188470
16 | 41:52.71 | 2:07.07 | 188471 | 198002
17 | 44:00.03 | 2:01.38 | 198003 | 207115
18 | 46:01.41 | 0:58.74 | 207116 | 211539
19 | 47:00.40 | 1:24.05 | 211540 | 217844
20 | 48:24.45 | 7:37.23 | 217845 | 252142
21 | 56:01.68 | 1:07.36 | 252143 | 257203
22 | 57:09.29 | 3:16.69 | 257204 | 271972
23 | 60:26.23 | 0:57.00 | 271973 | 276247
24 | 61:23.23 | 0:51.71 | 276248 | 280143
25 | 62:15.19 | 0:50.07 | 280144 | 283900
26 | 63:05.26 | 1:37.67 | 283901 | 291242
27 | 64:43.18 | 1:00.57 | 291243 | 295799
28 | 65:44.00 | 1:45.05 | 295800 | 303679
29 | 67:29.05 | 2:58.20 | 303680 | 317049
30 | 70:27.25 | 1:45.72 | 317050 | 324996
31 | 72:13.22 | 1:05.59 | 324997 | 329930
32 | 73:19.06 | 0:33.70 | 329931 | 332475

Range status and errors

Selected range Filename D:\Miklos Rozsa - Ben-Hur\Miklos Rozsa - Ben-Hur (Disc 3).wav Peak level 99.8 %
Extraction speed 8.0 X
Range quality 100.0 %
Test CRC 0A912771
Copy CRC 0A912771
Copy OK

No errors occurred


AccurateRip summary

Track 1 accurately ripped (confidence 3) [6D09DAF6] (AR v2)
Track 2 accurately ripped (confidence 3) [A23A13C3] (AR v2)
Track 3 accurately ripped (confidence 3) [94BDCB2B] (AR v2)
Track 4 accurately ripped (confidence 3) [5BD2C297] (AR v2)
Track 5 accurately ripped (confidence 3) [7F9748D2] (AR v2)
Track 6 accurately ripped (confidence 3) [30FD3A64] (AR v2)
Track 7 accurately ripped (confidence 3) [7BB5BC69] (AR v2)
Track 8 accurately ripped (confidence 3) [1E8A542A] (AR v2)
Track 9 accurately ripped (confidence 3) [ACA236C1] (AR v2)
Track 10 accurately ripped (confidence 3) [D9DD1D8B] (AR v2)
Track 11 accurately ripped (confidence 3) [2968C49A] (AR v2)
Track 12 accurately ripped (confidence 3) [24C8694E] (AR v2)
Track 13 accurately ripped (confidence 3) [20FE2F05] (AR v2)
Track 14 accurately ripped (confidence 3) [95FB5326] (AR v2)
Track 15 accurately ripped (confidence 3) [F480956E] (AR v2)
Track 16 accurately ripped (confidence 3) [07169FEC] (AR v2)
Track 17 accurately ripped (confidence 3) 0ACEE6A (AR v2)
Track 18 accurately ripped (confidence 3) [18974EC7] (AR v2)
Track 19 accurately ripped (confidence 3) [69F2DF9B] (AR v2)
Track 20 accurately ripped (confidence 3) [079ADDEB] (AR v2)
Track 21 accurately ripped (confidence 3) [A3080171] (AR v2)
Track 22 accurately ripped (confidence 3) [3E10D406] (AR v2)
Track 23 accurately ripped (confidence 3) [98C73FD0] (AR v2)
Track 24 accurately ripped (confidence 3) [E40C8940] (AR v2)
Track 25 accurately ripped (confidence 3) [F1F455BD] (AR v2)
Track 26 accurately ripped (confidence 3) [4232A7BC] (AR v2)
Track 27 accurately ripped (confidence 3) [A79B16CB] (AR v2)
Track 28 accurately ripped (confidence 3) [21E39090] (AR v2)
Track 29 accurately ripped (confidence 3) [A71B68DE] (AR v2)
Track 30 accurately ripped (confidence 3) [963014C8] (AR v2)
Track 31 accurately ripped (confidence 3) [8B753E6B] (AR v2)
Track 32 accurately ripped (confidence 3) [799DB9B6] (AR v2)

All tracks accurately ripped

End of status report

==== Log checksum 6D4501F2C3CD6DB7B6BF302260D4852CEB4FAAB5DDF8C6200289CA8C26027D70 ====

foobar2000 1.2 / Dynamic Range Meter 1.1.1
log date: 2015-06-20 14:28:52

------
Analyzed: Miklos Rozsa / Ben-Hur (Disc 3)
------

DR Peak RMS Duration Track
------
DR7 -0.24 dB -9.66 dB 3:27 01-Prelude
DR10 -1.55 dB -16.82 dB 2:18 02-The Adoration Of The Magi
DR10 -0.97 dB -12.24 dB 1:24 03-Roman March
DR8 -0.50 dB -11.63 dB 1:41 04-Friendship
DR9 -0.99 dB -14.25 dB 2:52 05-Love Theme Of Ben-Hur
DR7 -0.01 dB -9.88 dB 5:05 06-The Burning Desert
DR11 -0.01 dB -13.74 dB 2:49 07-The Rowing Of The Galley Slaves
DR12 -0.01 dB -14.71 dB 2:48 08-Naval Battle
DR9 -1.56 dB -13.54 dB 2:06 09-Return To Judea
DR11 -0.01 dB -12.80 dB 2:16 10-Victory Parade
DR8 -0.01 dB -11.11 dB 2:42 11-The Mother's Love
DR9 -0.01 dB -12.32 dB 2:34 12-The Lepers' Search For The Christ
DR9 -0.42 dB -12.24 dB 4:33 13-The Procession To Calvary
DR9 -0.01 dB -12.21 dB 3:44 14-The Miracle And Finale
DR9 -0.01 dB -12.49 dB 1:35 15-Star Of Bethlehem (Alternate Chorus)
DR12 -0.01 dB -16.06 dB 2:07 16-Adoration Of The Magi (Alternate Chorus)
DR10 -0.01 dB -12.73 dB 2:02 17-Prelude (Alternate Take)
DR10 -0.01 dB -16.15 dB 0:59 18-Spirit And Sword (Alternate I)
DR10 -0.01 dB -12.69 dB 1:24 19-Revenge (Outtake)
DR10 -0.01 dB -13.89 dB 7:37 20-The Desert / Exhaustion / The Prince Of Peace / Roman Galley (Alternate Seque...
DR11 -0.01 dB -16.91 dB 1:07 21-Roman Fleet (Alternate)
DR10 -0.01 dB -12.17 dB 3:17 22-The Galley (Alternate)
DR10 -1.22 dB -15.79 dB 0:57 23-Rest (Alternate)
DR10 -0.01 dB -13.73 dB 0:52 24-Battle Preparations - Part Two (Alternate)
DR11 -0.22 dB -14.62 dB 0:50 25-Roman Sails (Alternate)
DR10 -0.01 dB -13.07 dB 1:38 26-Victory Parade (Short Version)
DR11 -1.53 dB -14.30 dB 1:01 27-Fertility Dance (Orchestra Only)
DR11 -1.41 dB -14.99 dB 1:45 28-Arrius' Party (Long Version)
DR12 -2.22 dB -19.32 dB 2:58 29-Judea (Alternate)
DR9 -0.01 dB -12.98 dB 1:46 30-Homecoming (Alternate)
DR10 -0.01 dB -13.66 dB 1:06 31-Sorrow (Alternate I)
DR9 -0.01 dB -12.64 dB 0:34 32-Intermission (Alternate I)
------

Number of tracks: 32
Official DR value: DR10

Samplerate: 44100 Hz
Channels: 2
Bits per sample: 16
Bitrate: 775 kbps
Codec: FLAC

Exact Audio Copy V1.0 beta 3 from 29. August 2011

EAC extraction logfile from 31. March 2013, 13:10

Miklos Rozsa / Ben-Hur (Disc 4)

Used drive : TSSTcorpCDDVDW SH-S202H Adapter: 0 ID: 0

Read mode : Secure
Utilize accurate stream : Yes
Defeat audio cache : Yes
Make use of C2 pointers : No

Read offset correction

: 6
Overread into Lead-In and Lead-Out : No
Fill up missing offset samples with silence : Yes
Delete leading and trailing silent blocks : No
Null samples used in CRC calculations : Yes
Used interface
: Native Win32 interface for Win NT & 2000

Used output format : Internal WAV Routines
Sample format : 44.100 Hz; 16 Bit; Stereo

TOC of the extracted CD Track | Start | Length | Start sector | End sector
1 | 0:00.00 | 3:27.15 | 0 | 15539 2 | 3:27.15 | 2:12.26 | 15540 | 25465 3 | 5:39.41 | 1:17.45 | 25466 | 31285 4 | 6:57.11 | 1:46.65 | 31286 | 39300 5 | 8:44.01 | 2:43.29 | 39301 | 51554 6 | 11:27.30 | 5:03.34 | 51555 | 74313 7 | 16:30.64 | 2:51.69 | 74314 | 87207 8 | 19:22.58 | 2:51.26 | 87208 | 100058 9 | 22:14.09 | 2:15.74 | 100059 | 110257
10 | 24:30.08 | 2:15.41 | 110258 | 120423
11 | 26:45.49 | 2:29.51 | 120424 | 131649
12 | 29:15.25 | 2:27.47 | 131650 | 142721
13 | 31:42.72 | 4:30.03 | 142722 | 162974
14 | 36:13.00 | 3:44.35 | 162975 | 179809
15 | 39:57.35 | 3:51.38 | 179810 | 197172
16 | 43:48.73 | 1:12.13 | 197173 | 202585
17 | 45:01.11 | 2:15.23 | 202586 | 212733
18 | 47:16.34 | 1:34.31 | 212734 | 219814
19 | 48:50.65 | 1:42.26 | 219815 | 227490
20 | 50:33.16 | 2:51.04 | 227491 | 240319
21 | 53:24.20 | 0:36.60 | 240320 | 243079
22 | 54:01.05 | 4:04.34 | 243080 | 261413
23 | 58:05.39 | 7:19.40 | 261414 | 294378
24 | 65:25.04 | 2:23.14 | 294379 | 305117
25 | 67:48.18 | 1:35.54 | 305118 | 312296
26 | 69:23.72 | 4:31.58 | 312297 | 332679
27 | 73:55.55 | 3:36.52 | 332680 | 348931

Range status and errors

Selected range Filename D:\Miklos Rozsa - Ben-Hur\Miklos Rozsa - Ben-Hur (Disc 4).wav Peak level 99.8 %
Extraction speed 8.4 X
Range quality 100.0 %
Test CRC B0E038EF
Copy CRC B0E038EF
Copy OK

No errors occurred


AccurateRip summary

Track 1 accurately ripped (confidence 3) [F508F56C] (AR v2)
Track 2 accurately ripped (confidence 3) [EC95F210] (AR v2)
Track 3 accurately ripped (confidence 3) [E964627F] (AR v2)
Track 4 accurately ripped (confidence 3) [2BBD5A2E] (AR v2)
Track 5 accurately ripped (confidence 3) 33A2458 (AR v2)
Track 6 accurately ripped (confidence 3) [7C147868] (AR v2)
Track 7 accurately ripped (confidence 3) [F1BDBF38] (AR v2)
Track 8 accurately ripped (confidence 3) [FBA4DBEB] (AR v2)
Track 9 accurately ripped (confidence 3) [24076A62] (AR v2)
Track 10 accurately ripped (confidence 3) [773D6114] (AR v2)
Track 11 accurately ripped (confidence 3) [8923B9AF] (AR v2)
Track 12 accurately ripped (confidence 3) [DBDF250F] (AR v2)
Track 13 accurately ripped (confidence 3) [546F03A3] (AR v2)
Track 14 accurately ripped (confidence 3) [2F5BA93E] (AR v2)
Track 15 accurately ripped (confidence 3) [EDA27A18] (AR v2)
Track 16 accurately ripped (confidence 3) [696E4B49] (AR v2)
Track 17 accurately ripped (confidence 3) [C42F3D29] (AR v2)
Track 18 accurately ripped (confidence 3) [FD9ACD5F] (AR v2)
Track 19 accurately ripped (confidence 3) [1365F9BA] (AR v2)
Track 20 accurately ripped (confidence 3) [AA88AC81] (AR v2)
Track 21 accurately ripped (confidence 3) [4C110EC4] (AR v2)
Track 22 accurately ripped (confidence 3) [5A52FAD4] (AR v2)
Track 23 accurately ripped (confidence 3) [23373802] (AR v2)
Track 24 accurately ripped (confidence 3) [6B9962F2] (AR v2)
Track 25 accurately ripped (confidence 3) 5FB4297 (AR v2)
Track 26 accurately ripped (confidence 3) [7B2233FF] (AR v2)
Track 27 accurately ripped (confidence 2) [C81B48A5] (AR v2)

All tracks accurately ripped

End of status report

==== Log checksum D334B6AE5B0710299F31C557D06651B2A7B458D6253020FE92F52821F59C05E4 ====

foobar2000 1.2 / Dynamic Range Meter 1.1.1
log date: 2015-06-20 14:29:15

------
Analyzed: Miklos Rozsa / Ben-Hur (Disc 4)
------

DR Peak RMS Duration Track
------
DR7 -0.01 dB -8.16 dB 3:27 01-Prelude
DR10 -0.01 dB -13.71 dB 2:12 02-The Adoration Of The Magi
DR10 -0.01 dB -11.33 dB 1:18 03-Roman March
DR8 -0.01 dB -12.18 dB 1:47 04-Friendship
DR9 -0.01 dB -13.21 dB 2:43 05-Love Theme Of Ben-Hur
DR8 -0.01 dB -10.87 dB 5:03 06-The Burning Desert
DR8 -0.01 dB -9.71 dB 2:52 07-The Rowing Of The Galley Slaves
DR9 -0.01 dB -12.54 dB 2:51 08-Naval Battle
DR8 -0.01 dB -10.47 dB 2:16 09-Return To Judea
DR9 -0.01 dB -10.38 dB 2:16 10-Victory Parade
DR8 -0.01 dB -11.70 dB 2:30 11-The Mother's Love
DR9 -0.01 dB -13.20 dB 2:28 12-The Lepers' Search For The Christ
DR9 -0.01 dB -10.95 dB 4:30 13-The Procession To Calvary
DR10 -0.01 dB -13.00 dB 3:44 14-The Miracle And Finale
DR11 -0.01 dB -13.43 dB 3:52 15-Entr'Acte (Alternate)
DR11 -0.01 dB -12.28 dB 1:12 16-Panem Et Circenses (Complete Version)
DR11 -0.01 dB -12.72 dB 2:15 17-Circus Parade (Parade Of The Charioteers) (Film Edit)
DR10 -0.01 dB -13.40 dB 1:34 18-Aftermath (Alternate I)
DR10 -0.01 dB -13.49 dB 1:42 19-The Search (Alternate)
DR10 -0.01 dB -14.13 dB 2:51 20-Road Of Sorrow (Alternate)
DR10 -0.49 dB -14.67 dB 0:37 21-The Sermon (Alternate I)
DR10 -0.01 dB -14.05 dB 4:04 22-Valley Of The Dead / Tirzah Saved (Alternate)
DR12 -0.01 dB -14.94 dB 7:20 23-The Procession To Calvary / The Bearing Of The Cross / Recognition (Alternate...
DR12 -0.01 dB -16.82 dB 2:23 24-Aftermath (Alternate II)
DR10 -0.01 dB -14.55 dB 1:36 25-Golgotha (Alternate I)
DR11 -0.01 dB -15.20 dB 4:32 26-The Miracle / Finale (Alternate)
DR10 -0.01 dB -12.19 dB 3:37 27-Entr'Acte (Original Version)
------

Number of tracks: 27
Official DR value: DR10

Samplerate: 44100 Hz
Channels: 2
Bits per sample: 16
Bitrate: 789 kbps
Codec: FLAC

Exact Audio Copy V1.0 beta 3 from 29. August 2011

EAC extraction logfile from 31. March 2013, 13:35

Miklos Rozsa / Ben-Hur (Disc 5)

Used drive : TSSTcorpCDDVDW SH-S202H Adapter: 0 ID: 0

Read mode : Secure
Utilize accurate stream : Yes
Defeat audio cache : Yes
Make use of C2 pointers : No

Read offset correction

: 6
Overread into Lead-In and Lead-Out : No
Fill up missing offset samples with silence : Yes
Delete leading and trailing silent blocks : No
Null samples used in CRC calculations : Yes
Used interface
: Native Win32 interface for Win NT & 2000

Used output format : Internal WAV Routines
Sample format : 44.100 Hz; 16 Bit; Stereo

TOC of the extracted CD Track | Start | Length | Start sector | End sector
1 | 0:00.00 | 4:00.10 | 0 | 18009 2 | 4:00.10 | 1:54.06 | 18010 | 26565 3 | 5:54.16 | 3:32.01 | 26566 | 42466 4 | 9:26.17 | 1:57.24 | 42467 | 51265 5 | 11:23.41 | 3:30.28 | 51266 | 67043 6 | 14:53.69 | 1:28.03 | 67044 | 73646 7 | 16:21.72 | 2:13.35 | 73647 | 83656 8 | 18:35.32 | 1:33.32 | 83657 | 90663 9 | 20:08.64 | 3:30.02 | 90664 | 106415
10 | 23:38.66 | 1:18.10 | 106416 | 112275
11 | 24:57.01 | 2:52.40 | 112276 | 125215
12 | 27:49.41 | 2:41.65 | 125216 | 137355
13 | 30:31.31 | 1:53.58 | 137356 | 145888
14 | 32:25.14 | 2:16.24 | 145889 | 156112
15 | 34:41.38 | 2:47.37 | 156113 | 168674
16 | 37:29.00 | 2:48.20 | 168675 | 181294
17 | 40:17.20 | 3:33.54 | 181295 | 197323
18 | 43:50.74 | 1:35.27 | 197324 | 204475
19 | 45:26.26 | 2:06.28 | 204476 | 213953
20 | 47:32.54 | 2:05.63 | 213954 | 223391
21 | 49:38.42 | 0:40.63 | 223392 | 226454
22 | 50:19.30 | 2:02.19 | 226455 | 235623
23 | 52:21.49 | 1:25.09 | 235624 | 242007
24 | 53:46.58 | 0:54.11 | 242008 | 246068
25 | 54:40.69 | 1:07.06 | 246069 | 251099
26 | 55:48.00 | 0:23.61 | 251100 | 252885
27 | 56:11.61 | 3:39.69 | 252886 | 269379
28 | 59:51.55 | 0:37.17 | 269380 | 272171
29 | 60:28.72 | 0:37.24 | 272172 | 274970
30 | 61:06.21 | 0:22.27 | 274971 | 276647
31 | 61:28.48 | 0:21.03 | 276648 | 278225
32 | 61:49.51 | 0:34.44 | 278226 | 280819
33 | 62:24.20 | 0:40.39 | 280820 | 283858
34 | 63:04.59 | 1:28.60 | 283859 | 290518
35 | 64:33.44 | 1:39.22 | 290519 | 297965
36 | 66:12.66 | 1:17.45 | 297966 | 303785
37 | 67:30.36 | 0:36.37 | 303786 | 306522
38 | 68:06.73 | 1:06.45 | 306523 | 311517
39 | 69:13.43 | 2:20.34 | 311518 | 322051
40 | 71:34.02 | 2:09.41 | 322052 | 331767
41 | 73:43.43 | 1:39.20 | 331768 | 339212

Range status and errors

Selected range Filename D:\Miklos Rozsa - Ben-Hur\Miklos Rozsa - Ben-Hur (Disc 5).wav Peak level 99.8 %
Extraction speed 8.1 X
Range quality 99.9 %
Test CRC 5AC21813
Copy CRC 5AC21813
Copy OK

No errors occurred


AccurateRip summary

Track 1 accurately ripped (confidence 3) [EDF60C1B] (AR v2)
Track 2 accurately ripped (confidence 3) [E6E0FED4] (AR v2)
Track 3 accurately ripped (confidence 3) [AA604728] (AR v2)
Track 4 accurately ripped (confidence 3) [FD56A708] (AR v2)
Track 5 accurately ripped (confidence 3) [226F979D] (AR v2)
Track 6 accurately ripped (confidence 3) [33A894CD] (AR v2)
Track 7 accurately ripped (confidence 3) [07EB41ED] (AR v2)
Track 8 accurately ripped (confidence 3) [223B8074] (AR v2)
Track 9 accurately ripped (confidence 3) [6B4E55CD] (AR v2)
Track 10 accurately ripped (confidence 3) [02F31E73] (AR v2)
Track 11 accurately ripped (confidence 3) [5B30A246] (AR v2)
Track 12 accurately ripped (confidence 3) [18A6DA65] (AR v2)
Track 13 accurately ripped (confidence 3) [6714D47B] (AR v2)
Track 14 accurately ripped (confidence 3) [AA222D5E] (AR v2)
Track 15 accurately ripped (confidence 3) 48A86F8 (AR v2)
Track 16 accurately ripped (confidence 3) [2F565EF1] (AR v2)
Track 17 accurately ripped (confidence 3) [E3CC7622] (AR v2)
Track 18 accurately ripped (confidence 3) [84883EFE] (AR v2)
Track 19 accurately ripped (confidence 3) [609FA539] (AR v2)
Track 20 accurately ripped (confidence 3) [0ECD89A5] (AR v2)
Track 21 accurately ripped (confidence 3) [4D141322] (AR v2)
Track 22 accurately ripped (confidence 3) [954FF32F] (AR v2)
Track 23 accurately ripped (confidence 3) [FB28FCB2] (AR v2)
Track 24 accurately ripped (confidence 3) [00878E07] (AR v2)
Track 25 accurately ripped (confidence 3) [F7773C70] (AR v2)
Track 26 accurately ripped (confidence 3) [0CDDA65E] (AR v2)
Track 27 accurately ripped (confidence 3) [1CF47846] (AR v2)
Track 28 accurately ripped (confidence 3) [F7AE1341] (AR v2)
Track 29 accurately ripped (confidence 3) [20694C07] (AR v2)
Track 30 accurately ripped (confidence 3) [A92CC5E4] (AR v2)
Track 31 accurately ripped (confidence 3) [7EBEC453] (AR v2)
Track 32 accurately ripped (confidence 3) [9FCD48FE] (AR v2)
Track 33 accurately ripped (confidence 3) [D41B41EA] (AR v2)
Track 34 accurately ripped (confidence 3) [C9436E69] (AR v2)
Track 35 accurately ripped (confidence 3) [4D71AA97] (AR v2)
Track 36 accurately ripped (confidence 3) [931A4378] (AR v2)
Track 37 accurately ripped (confidence 3) [6FAE0224] (AR v2)
Track 38 accurately ripped (confidence 3) [20F2B4A9] (AR v2)
Track 39 accurately ripped (confidence 3) [26D22141] (AR v2)
Track 40 accurately ripped (confidence 3) [CF9748F5] (AR v2)
Track 41 accurately ripped (confidence 3) [4E4FC12F] (AR v2)

All tracks accurately ripped

End of status report

==== Log checksum E65C619C3AC2EEF09F042EA4228C830DBB0B90D04071823C7AD38445BE31093A ====

foobar2000 1.2 / Dynamic Range Meter 1.1.1
log date: 2015-06-20 14:29:37

------
Analyzed: Miklos Rozsa / Ben-Hur (Disc 5)
------

DR Peak RMS Duration Track
------
DR10 -0.01 dB -13.50 dB 4:00 01-Overture
DR9 -0.01 dB -12.88 dB 1:54 02-Star Of Bethlehem
DR13 -0.01 dB -15.83 dB 3:32 03-Gratus' Entry Into Jerusalem
DR10 -0.01 dB -15.61 dB 1:57 04-The House Of Hur
DR12 -0.01 dB -15.73 dB 3:30 05-Messala's Revenge
DR11 -1.35 dB -14.25 dB 1:28 06-Fertility Dance
DR10 -5.14 dB -19.55 dB 2:13 07-Farewell To Rome
DR11 -0.01 dB -15.33 dB 1:33 08-Arrius' Party
DR12 -0.01 dB -13.57 dB 3:30 09-Parade Of The Charioteers
DR12 -0.01 dB -14.43 dB 1:18 10-Bread And Circus March
DR10 -0.01 dB -13.55 dB 2:53 11-Death Of Messala
DR10 -0.17 dB -16.34 dB 2:42 12-Memories
DR11 -2.18 dB -20.75 dB 1:54 13-Sermon On The Mount
DR10 -0.01 dB -14.40 dB 2:16 14-Valley Of The Dead
DR10 -0.01 dB -14.25 dB 2:47 15-Golgotha
DR11 -0.01 dB -15.83 dB 2:48 16-The Christ Theme From Ben-Hur (Alleluia)
DR11 -0.68 dB -16.95 dB 3:34 17-Star Of Bethlehem / Adoration Of The Magi (Orchestra Only)
DR11 -2.87 dB -17.13 dB 1:35 18-Star Of Bethlehem (Chorus Only - Alternate Version)
DR14 -2.38 dB -21.56 dB 2:06 19-Adoration Of The Magi (Chorus Only - Alternate II)
DR15 -2.27 dB -21.41 dB 2:06 20-Adoration Of The Magi (Chorus Only - Alternate III)
DR10 -0.13 dB -16.98 dB 0:41 21-Spirit And Sword (Alternate II)
DR12 -0.31 dB -15.40 dB 2:02 22-Gratus' Entry To Jerusalem (Long Version)
DR12 -0.01 dB -16.01 dB 1:25 23-Revenge (Alternate)
DR10 -4.54 dB -19.57 dB 0:54 24-Arrius' Party (Fragments)
DR11 -1.02 dB -15.76 dB 1:07 25-Sorrow (Alternate II)
DR8 -0.65 dB -13.71 dB 0:24 26-Intermission (Alternate II)
DR11 -0.22 dB -14.58 dB 3:40 27-Entr'Acte (Original Version - Alternate Take)
DR9 -11.16 dB -23.63 dB 0:37 28-Aftermath (Alternate III)
DR10 -11.12 dB -25.08 dB 0:37 29-Aftermath (Alternate IV)
DR9 -8.00 dB -22.25 dB 0:22 30-The Sermon (Alternate II)
DR10 -6.12 dB -21.55 dB 0:21 31-The Sermon (Alternate III)
DR10 -5.15 dB -19.43 dB 0:35 32-The Sermon (Alternate IV)
DR10 -4.05 dB -19.74 dB 0:41 33-The Sermon (Alternate V)
DR10 -3.45 dB -17.81 dB 1:29 34-Golgotha (Alternate II)
DR10 -0.62 dB -14.82 dB 1:39 35-Miracle (Alternate II)
DR11 -1.11 dB -15.06 dB 1:18 36-Finale (Chorus Only - Alternate I)
DR9 -2.33 dB -15.90 dB 0:36 37-Finale (Chorus Only - Alternate II)
DR10 -1.64 dB -16.60 dB 1:07 38-Finale (Chorus Only - Alternate III)
DR10 -7.58 dB -23.07 dB 2:20 39-Love Theme (Demo Version)
DR13 -3.15 dB -18.54 dB 2:10 40-Harun Al Rozsad
DR10 -0.43 dB -13.51 dB 1:39 41-Quo Vadis Prelude (With Chimes) / Drums (Appian Way)
------

Number of tracks: 41
Official DR value: DR11

Samplerate: 44100 Hz
Channels: 2
Bits per sample: 16
Bitrate: 724 kbps
Codec: FLAC

http://i70.fastpic.ru/big/2015/0624/e7/ae6a9894897bd81c1993a8e2c66eb8e7.jpg



DOWNLOAD LINKS:
Buy Premium To Support Me & Get Resumable Support & Max Speed


Links are Interchangeable - No Password - Single Extraction

Miklos Rozsa - Ben-Hur: Complete Soundtrack Collection (2012) 5 CD Set Fast Download



 
 
 
Dear visitor, you went to the site as an unregistered user. We encourage you to register or enter the site under your name.
 
   
 
 (Votes #: 0)