2013Zone For Latest Downloads

 
     
 
Legal Downloads » Music » Gillan - Toolbox (1991) [German Press]
Menu
Home Applications
Games Movies
Music TV Shows
Torrents Graphics

Sitemap

RSS
 
Advanced Search
Last News
Site Info
Top Contributors:
  1    supper88 32766
  2    admin 32671
  3    Whisky 10080
  4    Shark_ 8911
  5    creativelivenew 8706
  6    whathesupa 2799
  7    candymypost 840
  8    hvnteam 629
  9    vuong87 3


Articles:
  This Hour: 0
  Today: 0
  This Month: 40
  All Time: 515636


Torrents:
  Today: 0
  Yesterday: 0
  All Time: 156702


Membership:
  Registered Today :0
  This Hour:0
  This Month:0
  Total:14
  Banned:1

{online}
{inform_torrent}
Friend:
We Recomend
Trend
Trend

Search In Site

Music : Gillan - Toolbox (1991) [German Press]
 
http://i72.fastpic.ru/big/2015/0629/03/edadf68689c8d3250376c163d8468003.jpg

Gillan - Toolbox (1991) German Press
EAC | FLAC | Tracks (Cue&Log) ~ 326 Mb (incl 5%) | Mp3 (CBR320) ~ 126 Mb (incl 5%) | Scans included
Genre: Hard Rock, Heavy Metal | Label: EastWest | # 9031-75641-2 | Time: 00:43:16

"Ian Gillan's final solo outing before his second comeback with Deep Purple is possibly the singer's most rocking solo collection. Originally a European release, Toolbox finally appeared in North American record stores in 1997. The disc is hampered by its '80s production (complete with faux-Van Halen guitar licks and big reverb drum sounds) but Gillan's personality and dynamic performances preserve Toolbox's sharp rock & roll edge. Tracks like "Candy Horizon" and "Don't Hold Me Back" have more than their share of questionable lyrics, but Gillan's trademark screams easily overshadow any poetic shortcomings. Nothing can compare to the classic recordings Gillan was involved with in the early '70s, but among his second-tier offerings, Toolbox is definitely one of the best."



Tracklist:

01. Hang Me Out To Dry (04:02)
02. Toolbox (04:15)
03. Dirty Dog (04:10)
04. Candy Horizon (04:15)
05. Don't Hold Me Back (04:36)
06. Pictures Of Hell (03:55)
07. Dancing Nylon Shirt (Part 1) (03:38)
08. Bed Of Nails (04:24)
09. Gassed Up (03:05)
10. Everything I Need (03:48)
11. Dancing Nylon Shirt (Part 2) (03:02)


Exact Audio Copy V1.0 beta 6 from 9. April 2015

EAC extraction logfile from 26. May 2015, 13:43

Gillan / Toolbox

Used drive : PLEXTOR DVDR PX-L890SA Adapter: 1 ID: 0

Read mode : Secure
Utilize accurate stream : Yes
Defeat audio cache : Yes
Make use of C2 pointers : No

Read offset correction

: 6
Overread into Lead-In and Lead-Out : No
Fill up missing offset samples with silence : Yes
Delete leading and trailing silent blocks : No
Null samples used in CRC calculations : Yes
Used interface
: Native Win32 interface for Win NT & 2000
Gap handling
: Appended to previous track

Used output format : User Defined Encoder
Selected bitrate : 1024 kBit/s
Quality : High
Add ID3 tag : No
Command line compressor : C:\Program Files (x86)\Exact Audio Copy\Flac\flac.exe
Additional command line options : -0 -V -T "ARTIST=%artist%" -T "TITLE=%title%" -T "ALBUM=%albumtitle%" -T "DATE=%year%" -T "TRACKNUMBER=%tracknr%" -T "TOTALTRACKS=%numtracks%" -T "GENRE=%genre%" -T "COMMENT=Naftamusic Release!" %source%

TOC of the extracted CD Track | Start | Length | Start sector | End sector
--1 | 0:00.00 | 4:02.42 | 0 | 18191 2 | 4:02.42 | 4:15.43 | 18192 | 37359 3 | 8:18.10 | 4:10.70 | 37360 | 56179 4 | 12:29.05 | 4:15.27 | 56180 | 75331 5 | 16:44.32 | 4:36.30 | 75332 | 96061 6 | 21:20.62 | 3:55.28 | 96062 | 113714 7 | 25:16.15 | 3:38.02 | 113715 | 130066 8 | 28:54.17 | 4:24.30 | 130067 | 149896 9 | 33:18.47 | 3:05.48 | 149897 | 163819
10 | 36:24.20 | 3:48.45 | 163820 | 180964
11 | 40:12.65 | 3:02.60 | 180965 | 194674

Track 1 Filename F:\Nafta Releases\Gillan - Toolbox (1991)[FLAC]-Naftamusic\01 - Hang Me Out To Dry.wav Pre-gap length 0:00:02.00 Peak level 98.9 %
Extraction speed 1.8 X
Track quality 100.0 %
Test CRC EF0D153F
Copy CRC EF0D153F
Accurately ripped (confidence 18) [847AA802] (AR v2)
Copy OK

Track 2 Filename F:\Nafta Releases\Gillan - Toolbox (1991)[FLAC]-Naftamusic\02 - Toolbox.wav Pre-gap length 0:00:00.02 Peak level 92.3 %
Extraction speed 2.0 X
Track quality 100.0 %
Test CRC 586E47B6
Copy CRC 586E47B6
Accurately ripped (confidence 18) [2D1B5530] (AR v2)
Copy OK

Track 3 Filename F:\Nafta Releases\Gillan - Toolbox (1991)[FLAC]-Naftamusic\03 - Dirty Dog.wav Pre-gap length 0:00:00.03 Peak level 100.0 %
Extraction speed 2.2 X
Track quality 100.0 %
Test CRC B6B8C9B7
Copy CRC B6B8C9B7
Accurately ripped (confidence 18) [06D2B617] (AR v2)
Copy OK

Track 4 Filename F:\Nafta Releases\Gillan - Toolbox (1991)[FLAC]-Naftamusic\04 - Candy Horizon.wav Pre-gap length 0:00:00.03 Peak level 91.5 %
Extraction speed 2.4 X
Track quality 100.0 %
Test CRC F2B10993
Copy CRC F2B10993
Accurately ripped (confidence 18) [32CF8D86] (AR v2)
Copy OK

Track 5 Filename F:\Nafta Releases\Gillan - Toolbox (1991)[FLAC]-Naftamusic\05 - Don't Hold Me Back.wav Pre-gap length 0:00:00.02 Peak level 98.6 %
Extraction speed 2.6 X
Track quality 100.0 %
Test CRC 5F2547C2
Copy CRC 5F2547C2
Accurately ripped (confidence 18) [EA69D3D8] (AR v2)
Copy OK

Track 6 Filename F:\Nafta Releases\Gillan - Toolbox (1991)[FLAC]-Naftamusic\06 - Pictures Of Hell.wav Pre-gap length 0:00:00.02 Peak level 84.2 %
Extraction speed 2.0 X
Track quality 99.9 %
Test CRC 195F7E47
Copy CRC 195F7E47
Accurately ripped (confidence 18) EAC6155 (AR v2)
Copy OK

Track 7 Filename F:\Nafta Releases\Gillan - Toolbox (1991)[FLAC]-Naftamusic\07 - Dancing Nylon Shirt (Part 1).wav Pre-gap length 0:00:00.03 Peak level 100.0 %
Extraction speed 2.8 X
Track quality 100.0 %
Test CRC F9F1CED7
Copy CRC F9F1CED7
Accurately ripped (confidence 18) [60C70638] (AR v2)
Copy OK

Track 8 Filename F:\Nafta Releases\Gillan - Toolbox (1991)[FLAC]-Naftamusic\08 - Bed Of Nails.wav Pre-gap length 0:00:00.02 Peak level 98.1 %
Extraction speed 3.0 X
Track quality 100.0 %
Test CRC A06E4259
Copy CRC A06E4259
Accurately ripped (confidence 18) [AD8D5011] (AR v2)
Copy OK

Track 9 Filename F:\Nafta Releases\Gillan - Toolbox (1991)[FLAC]-Naftamusic\09 - Gassed Up.wav Pre-gap length 0:00:00.02 Peak level 86.0 %
Extraction speed 3.0 X
Track quality 100.0 %
Test CRC 38D814AC
Copy CRC 38D814AC
Accurately ripped (confidence 18) [008C79ED] (AR v2)
Copy OK

Track 10 Filename F:\Nafta Releases\Gillan - Toolbox (1991)[FLAC]-Naftamusic\10 - Everything I Need.wav Pre-gap length 0:00:00.03 Peak level 88.8 %
Extraction speed 3.2 X
Track quality 100.0 %
Test CRC 324ED242
Copy CRC 324ED242
Accurately ripped (confidence 18) [354D4FE8] (AR v2)
Copy OK

Track 11 Filename F:\Nafta Releases\Gillan - Toolbox (1991)[FLAC]-Naftamusic\11 - Dancing Nylon Shirt (Part 2).wav Pre-gap length 0:00:00.03 Peak level 100.0 %
Extraction speed 3.1 X
Track quality 100.0 %
Test CRC 39D7E109
Copy CRC 39D7E109
Accurately ripped (confidence 18) [38057877] (AR v2)
Copy OK

All tracks accurately ripped

No errors occurred

End of status report

==== Log checksum 382B9E1127232EB643A1A520854864D4874CB8B7A332CB7A331B42F53C3195DE ====

foobar2000 1.2 / Dynamic Range Meter 1.1.1
log date: 2015-06-27 16:24:38

Analyzed: Gillan / Toolbox

DR Peak RMS Duration Track

DR14 -0.10 dB -15.60 dB 4:03 01-Hang Me Out To Dry
DR12 -0.69 dB -14.61 dB 4:16 02-Toolbox
DR14 0.00 dB -15.78 dB 4:11 03-Dirty Dog
DR12 -0.77 dB -14.25 dB 4:15 04-Candy Horizon
DR13 -0.12 dB -16.14 dB 4:36 05-Don't Hold Me Back
DR11 -1.49 dB -14.40 dB 3:55 06-Pictures Of Hell
DR14 0.00 dB -15.55 dB 3:38 07-Dancing Nylon Shirt (Part 1)
DR12 -0.16 dB -14.50 dB 4:24 08-Bed Of Nails
DR11 -1.31 dB -15.26 dB 3:06 09-Gassed Up
DR13 -1.03 dB -15.55 dB 3:49 10-Everything I Need
DR14 0.00 dB -15.87 dB 3:03 11-Dancing Nylon Shirt (Part 2)

Number of tracks: 11
Official DR value: DR13

Samplerate: 44100 Hz
Channels: 2
Bits per sample: 16
Bitrate: 911 kbps
Codec: FLAC

http://i72.fastpic.ru/big/2015/0629/84/fc43232bd27fc15e58c46eaa1784f584.jpg

http://i69.fastpic.ru/big/2015/0629/e1/6cd846d766d9999f36bf3f94cc4c83e1.jpg

All thanks to original releaser - The Fly
Passwordifneed: designol

DOWNLOAD LINKS:
Buy Premium To Support Me & Get Resumable Support & Max Speed


Links are Interchangeable - No Password - Single Extraction

 
 
 
Dear visitor, you went to the site as an unregistered user. We encourage you to register or enter the site under your name.
 
   
 
 (Votes #: 0)