2013Zone For Latest Downloads

 
     
 
Legal Downloads » Music » George Wallington - Knight Music (1957) {Atlantic-Koch Jazz}
Menu
Home Applications
Games Movies
Music TV Shows
Torrents Graphics

Sitemap

RSS
 
Advanced Search
Last News
Site Info
Top Contributors:
  1    supper88 32766
  2    admin 32747
  3    Whisky 10080
  4    Shark_ 8911
  5    creativelivenew 8706
  6    whathesupa 2799
  7    candymypost 840
  8    hvnteam 629
  9    vuong87 3


Articles:
  This Hour: 0
  Today: 0
  This Month: 16
  All Time: 515460


Torrents:
  Today: 0
  Yesterday: 0
  All Time: 156710


Membership:
  Registered Today :0
  This Hour:0
  This Month:0
  Total:14
  Banned:1

{online}
{inform_torrent}
Friend:
Full Download Scripts
Torrent Download
Trend
Trend

Search In Site

Music : George Wallington - Knight Music (1957) {Atlantic-Koch Jazz}
 

http://i70.fastpic.ru/big/2015/0702/10/12d6ffd3c5625f3d0cd62592c133bf10.jpg
George Wallington - Knight Music (1957) {Atlantic-Koch Jazz}
EAC rip (secure mode) | FLAC (tracks)+CUE+LOG -> 208 Mb | MP3 @320 -> 88 Mb
Full Artwork @ 300 dpi (jpg) -> 13 Mb | 5% repair rar
© 2000 Atlantic / Koch Jazz | KOC CD-8543
Jazz / Bop / Piano

"The fine bop pianist George Wallington hasn't received the recognition he deserved, possibly because of a two-dozen year gap from 1960-1984 when he was entirely out of the music business. This first-rate trio date for Atlantic has finally come out on CD and should help gain him some posthumous attention. One of his two greatest compositions, "Godchild" (which appears on the classic Miles Davis release The Birth of the Cool), opens the disc with a flourish, but there are many strong originals present. The lively stair-stepping "Serendipity" and the furious "Up Jumped the Devil" are worthy of comparison to Bud Powell. Wallington also covers several standards such as "Will You Still Be Mine?" and "It's All Right With Me" with finesse and imagination."

Personnel:
George Wallington - piano
Teddy Kotick - bass
Nick Stabulas - drums

tracklist:
01 - Godchild
02 - Serendipity
03 - Billie's Tune
04 - The Ghostly Lover
05 - Up Jumped The Devil
06 - It's All Right With Me
07 - The End Of A Love Affair
08 - Will You Still Be Mine
09 - In A Sentimental Mood
10 - World Weary
11 - One Night Of Love

Exact Audio Copy V0.99 prebeta 5 from 4. May 2009

EAC extraction logfile from 8. May 2014, 10:44

George Wallington / Knight Music

Used drive : PLEXTOR DVDR PX-L890SA Adapter: 6 ID: 0

Read mode : Secure
Utilize accurate stream : Yes
Defeat audio cache : Yes
Make use of C2 pointers : No

Read offset correction

: 6
Overread into Lead-In and Lead-Out : No
Fill up missing offset samples with silence : Yes
Delete leading and trailing silent blocks : No
Null samples used in CRC calculations : Yes
Used interface
: Native Win32 interface for Win NT & 2000
Gap handling
: Appended to previous track

Used output format : User Defined Encoder
Selected bitrate : 1024 kBit/s
Quality : High
Add ID3 tag : No
Command line compressor : C:\Program Files (x86)\FLAC Frontend\tools\flac.exe
Additional command line options : -8 -V -T "ARTIST=%a" -T "TITLE=%t" -T "ALBUM=%g" -T "DATE=%y" -T "TRACKNUMBER=%n" -T "GENRE=%m" -T "COMMENT=EAC FLAC -8" %s

TOC of the extracted CD Track | Start | Length | Start sector | End sector
--1 | 0:00.32 | 3:18.48 | 32 | 14929 2 | 3:19.05 | 3:05.37 | 14930 | 28841 3 | 6:24.42 | 3:05.28 | 28842 | 42744 4 | 9:29.70 | 3:46.62 | 42745 | 59756 5 | 13:16.57 | 2:40.05 | 59757 | 71761 6 | 15:56.62 | 2:56.53 | 71762 | 85014 7 | 18:53.40 | 3:47.70 | 85015 | 102109 8 | 22:41.35 | 3:02.25 | 102110 | 115784 9 | 25:43.60 | 4:45.10 | 115785 | 137169
10 | 30:28.70 | 3:14.32 | 137170 | 151751
11 | 33:43.27 | 2:51.58 | 151752 | 164634

Track 1 Filename C:\Users\ruskaval\Desktop\George Wallington - Knight Music (1957) [FLAC] {Koch Jazz}\01 - Godchild.wav Pre-gap length 0:00:02.32 Peak level 100.0 %
Track quality 100.0 %
Test CRC 3F0618D6
Copy CRC 3F0618D6
Accurately ripped (confidence 2) [AC9D304D]
Copy OK

Track 2 Filename C:\Users\ruskaval\Desktop\George Wallington - Knight Music (1957) [FLAC] {Koch Jazz}\02 - Serendipity.wav Pre-gap length 0:00:02.48 Peak level 97.9 %
Track quality 100.0 %
Test CRC A675E002
Copy CRC A675E002
Accurately ripped (confidence 2) [70C8922D]
Copy OK

Track 3 Filename C:\Users\ruskaval\Desktop\George Wallington - Knight Music (1957) [FLAC] {Koch Jazz}\03 - Billie's Tune.wav Pre-gap length 0:00:02.47 Peak level 90.8 %
Track quality 100.0 %
Test CRC 48A35889
Copy CRC 48A35889
Accurately ripped (confidence 2) [A06908A9]
Copy OK

Track 4 Filename C:\Users\ruskaval\Desktop\George Wallington - Knight Music (1957) [FLAC] {Koch Jazz}\04 - The Ghostly Lover.wav Pre-gap length 0:00:02.48 Peak level 100.0 %
Track quality 100.0 %
Test CRC B8C8CBE9
Copy CRC B8C8CBE9
Accurately ripped (confidence 2) [15FB47F2]
Copy OK

Track 5 Filename C:\Users\ruskaval\Desktop\George Wallington - Knight Music (1957) [FLAC] {Koch Jazz}\05 - Up Jumped The Devil.wav Pre-gap length 0:00:02.47 Peak level 84.4 %
Track quality 99.9 %
Test CRC 4BB3C35D
Copy CRC 4BB3C35D
Accurately ripped (confidence 2) [944D653B]
Copy OK

Track 6 Filename C:\Users\ruskaval\Desktop\George Wallington - Knight Music (1957) [FLAC] {Koch Jazz}\06 - It's All Right With Me.wav Pre-gap length 0:00:02.47 Peak level 85.3 %
Track quality 100.0 %
Test CRC 1AA023FE
Copy CRC 1AA023FE
Accurately ripped (confidence 2) [C7F32B41]
Copy OK

Track 7 Filename C:\Users\ruskaval\Desktop\George Wallington - Knight Music (1957) [FLAC] {Koch Jazz}\07 - The End Of A Love Affair.wav Pre-gap length 0:00:02.48 Peak level 93.1 %
Track quality 100.0 %
Test CRC F330D7AB
Copy CRC F330D7AB
Accurately ripped (confidence 2) [7098F2F1]
Copy OK

Track 8 Filename C:\Users\ruskaval\Desktop\George Wallington - Knight Music (1957) [FLAC] {Koch Jazz}\08 - Will You Still Be Mine.wav Pre-gap length 0:00:02.48 Peak level 97.3 %
Track quality 100.0 %
Test CRC 0D9F8CC1
Copy CRC 0D9F8CC1
Accurately ripped (confidence 2) [2EB842E6]
Copy OK

Track 9 Filename C:\Users\ruskaval\Desktop\George Wallington - Knight Music (1957) [FLAC] {Koch Jazz}\09 - In A Sentimental Mood.wav Pre-gap length 0:00:02.48 Peak level 77.0 %
Track quality 100.0 %
Test CRC 6F529086
Copy CRC 6F529086
Accurately ripped (confidence 2) [D3B3AC27]
Copy OK

Track 10 Filename C:\Users\ruskaval\Desktop\George Wallington - Knight Music (1957) [FLAC] {Koch Jazz}\10 - World Weary.wav Pre-gap length 0:00:02.48 Peak level 80.1 %
Track quality 100.0 %
Test CRC 16148EC4
Copy CRC 16148EC4
Accurately ripped (confidence 2) 5B2D1C5
Copy OK

Track 11 Filename C:\Users\ruskaval\Desktop\George Wallington - Knight Music (1957) [FLAC] {Koch Jazz}\11 - One Night Of Love.wav Pre-gap length 0:00:02.47 Peak level 70.9 %
Track quality 100.0 %
Test CRC ECA36DB2
Copy CRC ECA36DB2
Accurately ripped (confidence 2) B013348
Copy OK

All tracks accurately ripped

No errors occurred

End of status report

http://i72.fastpic.ru/big/2015/0702/0d/bcb6e0976420e396e4d588376ad4420d.jpg

http://i69.fastpic.ru/big/2015/0702/fe/1b24a6f20f0e3c74a2f3c8ef15362bfe.jpg


thanks to 0xxa...
DOWNLOAD LINKS:
Buy Premium To Support Me & Get Resumable Support & Max Speed


Links are Interchangeable - No Password - Single Extraction

George Wallington - Knight Music (1957) {Atlantic-Koch Jazz} Fast Download



 
 
 
Dear visitor, you went to the site as an unregistered user. We encourage you to register or enter the site under your name.
 
   
 
 (Votes #: 0)