2013Zone For Latest Downloads

 
     
 
Legal Downloads » Music » Deniece Williams - As Good As It Gets (1988) RE-UP
Menu
Home Applications
Games Movies
Music TV Shows
Torrents Graphics

Sitemap

RSS
 
Advanced Search
Last News
Site Info
Top Contributors:
  1    supper88 32766
  2    admin 32671
  3    Whisky 10080
  4    Shark_ 8911
  5    creativelivenew 8706
  6    whathesupa 2799
  7    candymypost 840
  8    hvnteam 629
  9    vuong87 3


Articles:
  This Hour: 0
  Today: 20
  This Month: 78
  All Time: 515636


Torrents:
  Today: 0
  Yesterday: 0
  All Time: 156702


Membership:
  Registered Today :0
  This Hour:0
  This Month:0
  Total:14
  Banned:1

{online}
{inform_torrent}
Friend:
We Recomend
Trend
Trend
Ad1

Search In Site

Music : Deniece Williams - As Good As It Gets (1988) RE-UP
 
http://i71.fastpic.ru/big/2015/0705/64/c949ac55378337b0fdb3f02e41826e64.jpg

Deniece Williams - As Good As It Gets (1988)
R&B, Urban, Dance-Pop | EAC Rip | FLAC, Img+CUE + LOG + Full Scans-600dpi (JPEG) | 43:22 Min | 329,94 Mb
Label: Columbia | Released: 1988, October, 04

"
It's tempting to call this review "Her Best from the 80's," but Niecy had an abundance of good songs spread out over all of her 80's albums; and depending on the mood one's in, each could be considered "her best" at different times.
"

Executive Producer: Brad Westering for Gateway Music House, Inc.
Mixed by: Chris Lord-Alge at The Grey Room, Los Angeles, CA
Assisted by: Jim Dineen
Additional Studio Support: Skip Whiting, David Scott
Mastered by: Bernie Grundman


Release of the album: 1988 [LP Columbia, Cat.# FC 44322, USA]
Release of this CD: 2008, Mayl, 28 [CD Columbia (USA), Cat.# CK 44322 / UPC: 074644432220]

http://i69.fastpic.ru/big/2015/0705/13/3bd6861447174c7855d3a74d6d20cb13.jpg


Tracklist:

01. I Can't Wait (04:28)
(Skylark)
02. This Is As Good As It Gets (04:34)
(Gregg Karukas / Ron Boustead)
03. We Are Here To Change The World (03:48)
(Michael Jackson / John Barnes)
04. All I Need (04:17)
(Monte Moir)
05. Memories (04:36)
(Deniece Williams / George Duke)
06. There's No Other (04:21)
(Deniece Williams / Newz / Mike Moore)
07. I Am Sure (04:30)
(Mike Hudson / M.W. Smith)
08. It's You I'm After (05:04)
(Roby Duke)
09. Don't Stop The Love (03:53)
(Michael McGregor)
10. Hold Me Tight (03:51)
(Betsy Cook)

Exact Audio Copy V1.0 beta 3 from 29. August 2011

EAC extraction logfile from 27. November 2011, 13:02

Deniece Williams / As Good As It Gets

Used drive : ATAPI DVD DW 8X16X8X16 Adapter: 0 ID: 2

Read mode : Secure
Utilize accurate stream : Yes
Defeat audio cache : Yes
Make use of C2 pointers : No

Read offset correction

: 618
Overread into Lead-In and Lead-Out : No
Fill up missing offset samples with silence : Yes
Delete leading and trailing silent blocks : No
Null samples used in CRC calculations : Yes
Used interface
: Native Win32 interface for Win NT & 2000

Used output format : Internal WAV Routines
Sample format : 44.100 Hz; 16 Bit; Stereo

TOC of the extracted CD Track | Start | Length | Start sector | End sector
--1 | 0:00.00 | 4:28.32 | 0 | 20131 2 | 4:28.32 | 4:34.05 | 20132 | 40686 3 | 9:02.37 | 3:48.73 | 40687 | 57859 4 | 12:51.35 | 4:17.20 | 57860 | 77154 5 | 17:08.55 | 4:36.17 | 77155 | 97871 6 | 21:44.72 | 4:21.33 | 97872 | 117479 7 | 26:06.30 | 4:30.47 | 117480 | 137776 8 | 30:37.02 | 5:04.25 | 137777 | 160601 9 | 35:41.27 | 3:53.63 | 160602 | 178139
10 | 39:35.15 | 3:51.07 | 178140 | 195471

Range status and errors

Selected range Filename C:\BlondStyle\Deniece Williams - As Good As It Gets.wav Peak level 94.5 %
Extraction speed 8.5 X
Range quality 100.0 %
Test CRC 1709F936
Copy CRC 1709F936
Copy OK

No errors occurred


AccurateRip summary

Track 1 accurately ripped (confidence 2) [6A6E70D4] (AR v1)
Track 2 accurately ripped (confidence 2) [1D80ACF1] (AR v1)
Track 3 accurately ripped (confidence 2) [3377D1EB] (AR v1)
Track 4 accurately ripped (confidence 2) [73CC6AA4] (AR v1)
Track 5 accurately ripped (confidence 2) [32AEFEC7] (AR v1)
Track 6 accurately ripped (confidence 2) [70BC8209] (AR v1)
Track 7 accurately ripped (confidence 2) [8E61A1A0] (AR v1)
Track 8 accurately ripped (confidence 2) DCCB4FD (AR v1)
Track 9 accurately ripped (confidence 2) [67E55BAF] (AR v1)
Track 10 accurately ripped (confidence 2) [0DCD7F78] (AR v1)

All tracks accurately ripped

End of status report

==== Log checksum 18A1187722E8432FCF2EF7F01E9C4C9D1192FCDCAC4D3178A4405BA675F6070B ====

[Disc ID: 00108729-008444c7-7d0a2e0a]
Track [ CRC ] Status
01 [6a6e70d4] (02/02) Accurately ripped as in pressing(s) #1
02 [1d80acf1] (02/02) Accurately ripped as in pressing(s) #1
03 [3377d1eb] (02/02) Accurately ripped as in pressing(s) #1
04 [73cc6aa4] (02/02) Accurately ripped as in pressing(s) #1
05 [32aefec7] (02/02) Accurately ripped as in pressing(s) #1
06 [70bc8209] (02/02) Accurately ripped as in pressing(s) #1
07 [8e61a1a0] (02/02) Accurately ripped as in pressing(s) #1
08 dccb4fd (02/02) Accurately ripped as in pressing(s) #1
09 [67e55baf] (02/02) Accurately ripped as in pressing(s) #1
10 [0dcd7f78] (02/02) Accurately ripped as in pressing(s) #1

-
Statistics for: Deniece Williams - As Good As It Gets.wav
Number of Samples: 114937536
- left right

Peak value: -0.53 dB -0.49 dB
Avg RMS: -17.37 dB -17.21 dB
DR channel: 14.35 dB 14.43 dB
-

Official DR value: DR14
=



password: BlondStyle


DOWNLOAD LINKS:
Buy Premium To Support Me & Get Resumable Support & Max Speed


Links are Interchangeable - No Password - Single Extraction



Ad2

 
 
 
Dear visitor, you went to the site as an unregistered user. We encourage you to register or enter the site under your name.
 
   
 
 (Votes #: 0)