2013Zone For Latest Downloads

 
     
 
Legal Downloads » Music » Hamilton, Joe Frank & Reynolds ‎- Fallin' In Love - The Playboy Years (2007)
Menu
Home Applications
Games Movies
Music TV Shows
Torrents Graphics

Sitemap

RSS
 
Advanced Search
Last News
Site Info
Top Contributors:
  1    supper88 32766
  2    admin 32756
  3    Whisky 10080
  4    Shark_ 8911
  5    creativelivenew 8706
  6    whathesupa 2799
  7    candymypost 840
  8    hvnteam 629
  9    vuong87 3


Articles:
  This Hour: 0
  Today: 0
  This Month: 0
  All Time: 515486


Torrents:
  Today: 0
  Yesterday: 0
  All Time: 156739


Membership:
  Registered Today :0
  This Hour:0
  This Month:0
  Total:14
  Banned:1

{online}
{inform_torrent}
Friend:
Full Download Scripts
Torrent Download
Trend
Trend

Search In Site

Music : Hamilton, Joe Frank & Reynolds ‎- Fallin' In Love - The Playboy Years (2007)
 
http://i70.fastpic.ru/big/2015/0708/2b/9cd6ab8227dcc59d18772c3c4bc41c2b.jpg

Hamilton, Joe Frank & Reynolds ‎- Fallin' In Love - The Playboy Years (2007)
EAC Rip | FLAC (Tracks) +CUE, LOG | 587 MB | Covers Included
Rock / AOR | Label: Renaissance Records | Catalog Number: RMED-0144

"Hamilton, Joe Frank & Reynolds were a 1970s soft rock trio from Los Angeles. The original members were Dan Hamilton (guitar/lead vocal), Joe Frank Carollo (bass/vocal), and Tommy Reynolds (multi-instrumentalist/vocal), all of whom had previously played in The T-Bones, a 1960s band noted for the instrumental hit "No Matter What Shape (Your Stomach's In)".
The group first hit the charts in 1971 with "Don't Pull Your Love". Reynolds left the group in late 1972, and was replaced by keyboardist Alan Dennison; however, the band still kept the name 'Hamilton, Joe Frank & Reynolds'. This revised line-up performed the group's biggest hit, 1975's "Fallin' in Love""

Exact Audio Copy V1.0 beta 3 from 29. August 2011

EAC extraction logfile from 3. July 2015, 20:45

Hamilton, Joe Frank & Reynolds / Fallin' In Love - The Playboy Years

Used drive : ATAPI DVD A DH16A6L-C Adapter: 2 ID: 0

Read mode : Secure
Utilize accurate stream : Yes
Defeat audio cache : Yes
Make use of C2 pointers : No

Read offset correction

: 6
Overread into Lead-In and Lead-Out : No
Fill up missing offset samples with silence : Yes
Delete leading and trailing silent blocks : No
Null samples used in CRC calculations : Yes
Used interface
: Native Win32 interface for Win NT & 2000
Gap handling
: Appended to previous track

Used output format : User Defined Encoder
Selected bitrate : 1024 kBit/s
Quality : High
Add ID3 tag : No
Command line compressor : C:\Program Files\FLAC\flac.exe
Additional command line options : -8 -V -T "ARTIST=%artist%" -T "TITLE=%title%" -T "ALBUM=%albumtitle%" -T "DATE=%year%" -T "TRACKNUMBER=%tracknr%" -T "GENRE=%genre%" -T "PERFORMER=%albuminterpret%" -T "COMPOSER=%composer%" %haslyrics%--tag-from-file=LYRICS="%lyricsfile%"%haslyrics% -T "ALBUMARTIST=%albumartist%" -T "DISCNUMBER=%cdnumber%" -T "TOTALDISCS=%totalcds%" -T "TOTALTRACKS=%numtracks%" -T "COMMENT=%comment%" %source% -o %dest%

TOC of the extracted CD Track | Start | Length | Start sector | End sector
--1 | 0:00.00 | 3:18.67 | 0 | 14916 2 | 3:18.67 | 3:06.10 | 14917 | 28876 3 | 6:25.02 | 4:34.20 | 28877 | 49446 4 | 10:59.22 | 4:14.65 | 49447 | 68561 5 | 15:14.12 | 3:02.10 | 68562 | 82221 6 | 18:16.22 | 3:42.05 | 82222 | 98876 7 | 21:58.27 | 3:16.32 | 98877 | 113608 8 | 25:14.59 | 4:48.17 | 113609 | 135225 9 | 30:03.01 | 3:00.00 | 135226 | 148725
10 | 33:03.01 | 4:37.44 | 148726 | 169544
11 | 37:40.45 | 3:05.15 | 169545 | 183434
12 | 40:45.60 | 3:10.13 | 183435 | 197697
13 | 43:55.73 | 4:45.00 | 197698 | 219072
14 | 48:40.73 | 3:03.32 | 219073 | 232829
15 | 51:44.30 | 4:51.27 | 232830 | 254681
16 | 56:35.57 | 3:34.28 | 254682 | 270759
17 | 60:10.10 | 2:46.35 | 270760 | 283244
18 | 62:56.45 | 2:57.19 | 283245 | 296538
19 | 65:53.64 | 3:35.42 | 296539 | 312705
20 | 69:29.31 | 2:34.06 | 312706 | 324261

Track 1 Filename F:\MUSIC\0\POSTS\Hamilton, Joe Frank & Reynolds ‎- Fallin' In Love - The Playboy Years (2007)\01 - Winners And Losers.wav Pre-gap length 0:00:02.00 Peak level 89.1 %
Extraction speed 2.7 X
Track quality 99.9 %
Test CRC DFDC2FD2
Copy CRC DFDC2FD2
Accurately ripped (confidence 2) [0C3FE243] (AR v1)
Copy OK

Track 2 Filename F:\MUSIC\0\POSTS\Hamilton, Joe Frank & Reynolds ‎- Fallin' In Love - The Playboy Years (2007)\02 - Everyday Without You.wav Peak level 89.1 %
Extraction speed 3.7 X
Track quality 100.0 %
Test CRC 0628F909
Copy CRC 0628F909
Accurately ripped (confidence 2) [8E5A5320] (AR v1)
Copy OK

Track 3 Filename F:\MUSIC\0\POSTS\Hamilton, Joe Frank & Reynolds ‎- Fallin' In Love - The Playboy Years (2007)\03 - Only Love (Will Break Your Heart).wav Peak level 89.1 %
Extraction speed 4.2 X
Track quality 100.0 %
Test CRC BDBA7FB6
Copy CRC BDBA7FB6
Accurately ripped (confidence 2) 20AEA6B (AR v1)
Copy OK

Track 4 Filename F:\MUSIC\0\POSTS\Hamilton, Joe Frank & Reynolds ‎- Fallin' In Love - The Playboy Years (2007)\04 - What Kind Of Love Is This.wav Peak level 89.1 %
Extraction speed 4.4 X
Track quality 100.0 %
Test CRC 76714737
Copy CRC 76714737
Accurately ripped (confidence 2) [98840D3D] (AR v1)
Copy OK

Track 5 Filename F:\MUSIC\0\POSTS\Hamilton, Joe Frank & Reynolds ‎- Fallin' In Love - The Playboy Years (2007)\05 - Fallin' In Love.wav Peak level 100.0 %
Extraction speed 4.0 X
Track quality 100.0 %
Test CRC 3F65F048
Copy CRC 3F65F048
Accurately ripped (confidence 2) [1D0D29E5] (AR v1)
Copy OK

Track 6 Filename F:\MUSIC\0\POSTS\Hamilton, Joe Frank & Reynolds ‎- Fallin' In Love - The Playboy Years (2007)\06 - Badman.wav Peak level 89.1 %
Extraction speed 3.8 X
Track quality 99.9 %
Test CRC D190FB3B
Copy CRC D190FB3B
Accurately ripped (confidence 2) [86F67FA8] (AR v1)
Copy OK

Track 7 Filename F:\MUSIC\0\POSTS\Hamilton, Joe Frank & Reynolds ‎- Fallin' In Love - The Playboy Years (2007)\07 - Who Do You Love.wav Peak level 89.1 %
Extraction speed 4.7 X
Track quality 100.0 %
Test CRC 4A835FE4
Copy CRC 4A835FE4
Accurately ripped (confidence 2) [8DE0C14C] (AR v1)
Copy OK

Track 8 Filename F:\MUSIC\0\POSTS\Hamilton, Joe Frank & Reynolds ‎- Fallin' In Love - The Playboy Years (2007)\08 - Barroom Blues.wav Peak level 89.1 %
Extraction speed 4.5 X
Track quality 100.0 %
Test CRC ED6A1C2C
Copy CRC ED6A1C2C
Accurately ripped (confidence 2) [C8C077D6] (AR v1)
Copy OK

Track 9 Filename F:\MUSIC\0\POSTS\Hamilton, Joe Frank & Reynolds ‎- Fallin' In Love - The Playboy Years (2007)\09 - So Good At Lovin' You.wav Peak level 89.1 %
Extraction speed 5.2 X
Track quality 100.0 %
Test CRC 881F9C8E
Copy CRC 881F9C8E
Accurately ripped (confidence 2) [D0D60AF4] (AR v1)
Copy OK

Track 10 Filename F:\MUSIC\0\POSTS\Hamilton, Joe Frank & Reynolds ‎- Fallin' In Love - The Playboy Years (2007)\10 - Love Is.wav Peak level 89.1 %
Extraction speed 5.3 X
Track quality 100.0 %
Test CRC 5E61D200
Copy CRC 5E61D200
Accurately ripped (confidence 2) [78063F5C] (AR v1)
Copy OK

Track 11 Filename F:\MUSIC\0\POSTS\Hamilton, Joe Frank & Reynolds ‎- Fallin' In Love - The Playboy Years (2007)\11 - Light Up The World With Love.wav Peak level 89.1 %
Extraction speed 4.6 X
Track quality 100.0 %
Test CRC 4C53A142
Copy CRC 4C53A142
Accurately ripped (confidence 2) A385806 (AR v1)
Copy OK

Track 12 Filename F:\MUSIC\0\POSTS\Hamilton, Joe Frank & Reynolds ‎- Fallin' In Love - The Playboy Years (2007)\12 - You Sold Me A One Way Ticket To Love.wav Peak level 89.1 %
Extraction speed 4.6 X
Track quality 100.0 %
Test CRC 7556B372
Copy CRC 7556B372
Accurately ripped (confidence 2) [EA2EC7E6] (AR v1)
Copy OK

Track 13 Filename F:\MUSIC\0\POSTS\Hamilton, Joe Frank & Reynolds ‎- Fallin' In Love - The Playboy Years (2007)\13 - I Was There.wav Peak level 89.1 %
Extraction speed 5.6 X
Track quality 100.0 %
Test CRC FFB4BBFA
Copy CRC FFB4BBFA
Accurately ripped (confidence 2) [D54349E1] (AR v1)
Copy OK

Track 14 Filename F:\MUSIC\0\POSTS\Hamilton, Joe Frank & Reynolds ‎- Fallin' In Love - The Playboy Years (2007)\14 - Don't Fight The Hands That Need You.wav Peak level 89.1 %
Extraction speed 6.2 X
Track quality 100.0 %
Test CRC D299DB06
Copy CRC D299DB06
Accurately ripped (confidence 2) [AB46C530] (AR v1)
Copy OK

Track 15 Filename F:\MUSIC\0\POSTS\Hamilton, Joe Frank & Reynolds ‎- Fallin' In Love - The Playboy Years (2007)\15 - Love & Coversation.wav Peak level 89.1 %
Extraction speed 6.3 X
Track quality 100.0 %
Test CRC 89ECFD24
Copy CRC 89ECFD24
Accurately ripped (confidence 2) [12ADF187] (AR v1)
Copy OK

Track 16 Filename F:\MUSIC\0\POSTS\Hamilton, Joe Frank & Reynolds ‎- Fallin' In Love - The Playboy Years (2007)\16 - Now That I've Got You.wav Peak level 89.1 %
Extraction speed 6.3 X
Track quality 100.0 %
Test CRC 56EB7482
Copy CRC 56EB7482
Accurately ripped (confidence 2) [511056F9] (AR v1)
Copy OK

Track 17 Filename F:\MUSIC\0\POSTS\Hamilton, Joe Frank & Reynolds ‎- Fallin' In Love - The Playboy Years (2007)\17 - Act Of Mercy.wav Peak level 89.1 %
Extraction speed 6.1 X
Track quality 100.0 %
Test CRC 59F3EEF9
Copy CRC 59F3EEF9
Accurately ripped (confidence 2) [899236B7] (AR v1)
Copy OK

Track 18 Filename F:\MUSIC\0\POSTS\Hamilton, Joe Frank & Reynolds ‎- Fallin' In Love - The Playboy Years (2007)\18 - Houdini.wav Peak level 89.1 %
Extraction speed 5.0 X
Track quality 99.9 %
Test CRC 29CC0FE3
Copy CRC 29CC0FE3
Accurately ripped (confidence 2) [7F79EF39] (AR v1)
Copy OK

Track 19 Filename F:\MUSIC\0\POSTS\Hamilton, Joe Frank & Reynolds ‎- Fallin' In Love - The Playboy Years (2007)\19 - Old Habits.wav Peak level 89.1 %
Extraction speed 6.9 X
Track quality 100.0 %
Test CRC 1BAFB7F2
Copy CRC 1BAFB7F2
Accurately ripped (confidence 2) [994AD284] (AR v1)
Copy OK

Track 20 Filename F:\MUSIC\0\POSTS\Hamilton, Joe Frank & Reynolds ‎- Fallin' In Love - The Playboy Years (2007)\20 - Get On The Bus.wav Peak level 89.1 %
Extraction speed 6.2 X
Track quality 100.0 %
Test CRC 3CC399F1
Copy CRC 3CC399F1
Accurately ripped (confidence 2) [66693FB7] (AR v1)
Copy OK

All tracks accurately ripped

No errors occurred

End of status report

==== Log checksum 35631B3F252FE3AFE455E643717DC403E95BA29F3F2C7A4BDBF86EDE116D22CD ====

Tracklist:
Fallin' In Love
01. Winners And Losers
02. Everyday Without You
03. Only Love (Will Break Your Heart)
04. What Kind Of Love Is This
05. Fallin' In Love
06. Badman
07. Who Do You Love
08. Barroom Blues
09. So Good At Lovin' You
10. Love Is
Love & Coversation
11. Light Up The World With Love
12. You Sold Me A One Way Ticket To Love
13. I Was There
14. Don't Fight The Hands That Need You
15. Love & Coversation
16. Now That I've Got You
17. Act Of Mercy
18. Houdini
19. Old Habits
20. Get On The Bus
DOWNLOAD LINKS:
Buy Premium To Support Me & Get Resumable Support & Max Speed


Links are Interchangeable - No Password - Single Extraction

Hamilton, Joe Frank & Reynolds ‎- Fallin' In Love - The Playboy Years (2007) Fast Download



 
 
 
Dear visitor, you went to the site as an unregistered user. We encourage you to register or enter the site under your name.
 
   
 
 (Votes #: 0)