Advertise
onlinemovies


Wayne Shorter - Phantom Navigator (1987) {CBS} [Re-Up]

Published On: 9-07-2015, 13:45
http://i70.fastpic.ru/big/2015/0708/5a/4086ca468aee9188cd1102999f937d5a.jpg

Wayne Shorter - Phantom Navigator (1987) {CBS}
EAC 0.99pb4 | FLAC tracks level 6 | Cue+Log+M3U | Full Scans 360dpi | 229MB + 5% Recovery
Genre: Jazz, Fusion

"Phantom Navigator is the seventeenth album by jazz saxophonist Wayne Shorter, that was released on Columbia in 1987."

Track List
01. Condition Red 5:08
02. Mahogany Bird 6:10
03. Remote Control 7:55
04. Yamanja 6:28
05. Forbidden, Plan-iT! 6:09
06. Flagships 6:35

musicians
Wayne Shorter - tenor and soprano saxes, lyricon, vocals
Gary Willis - bass
Chick Corea - piano
John Patitucci - acoustic bass
Alphonso Johnson - bass
Jim Beard - synthesizer
Jeff Bova - synthesizer
Jimmy Bralower - percussion, drums, drum programming
Tom Brechtlein - drums
Mitchel Forman - synthesizers, piano, keyboards
Stu Goldberg - synthesizer
Erik Hanson - synthesizer
Scott Roberts - percussion
Ana Maria Shorter - vocals
Bill Summers - percussion
Gregor Goldberg - vocals

Produced by Wayne Shorter

Exact Audio Copy V0.99 prebeta 4 from 23. January 2008

EAC extraction logfile from 17. October 2008, 21:07

Wayne Shorter / Phantom Navigator

Used drive : HP DVD Writer 640b Adapter: 4 ID: 0

Read mode : Secure
Utilize accurate stream : Yes
Defeat audio cache : Yes
Make use of C2 pointers : No

Read offset correction

: 102
Overread into Lead-In and Lead-Out : No
Fill up missing offset samples with silence : Yes
Delete leading and trailing silent blocks : No
Null samples used in CRC calculations : Yes
Used interface
: Installed external ASPI interface
Gap handling
: Appended to previous track

Used output format : User Defined Encoder
Selected bitrate : 320 kBit/s
Quality : High
Add ID3 tag : No
Command line compressor : C:\Program Files\Exact Audio Copy\FLAC\FLAC.EXE
Additional command line options : -6 -V -T "ARTIST=%a" -T "TITLE=%t" -T "ALBUM=%g" -T "DATE=%y" -T "TRACKNUMBER=%n" -T "GENRE=%m" -T "COMMENT=%e" %s -o %d

TOC of the extracted CD Track | Start | Length | Start sector | End sector
--1 | 0:00.00 | 5:13.20 | 0 | 23494 2 | 5:13.20 | 6:13.07 | 23495 | 51476 3 | 11:26.27 | 7:58.13 | 51477 | 87339 4 | 19:24.40 | 6:30.20 | 87340 | 116609 5 | 25:54.60 | 6:10.17 | 116610 | 144376 6 | 32:05.02 | 6:38.45 | 144377 | 174271

Track 1 Filename C:\Upload\Wayne Shorter - Phantom Navigator\01Condition Red.wav Pre-gap length 0:00:02.00 Peak level 81.2 %
Track quality 100.0 %
Copy CRC 52842D1E
Accurately ripped (confidence 2) [CC365816]
Copy OK

Track 2 Filename C:\Upload\Wayne Shorter - Phantom Navigator\02Mahogany Bird.wav Pre-gap length 0:00:01.43 Peak level 68.0 %
Track quality 100.0 %
Copy CRC A390F083
Accurately ripped (confidence 2) [112315F4]
Copy OK

Track 3 Filename C:\Upload\Wayne Shorter - Phantom Navigator\03Remote Control.wav Pre-gap length 0:00:02.17 Peak level 97.2 %
Track quality 99.9 %
Copy CRC 5A9F8431
Accurately ripped (confidence 2) [0B6E6B42]
Copy OK

Track 4 Filename C:\Upload\Wayne Shorter - Phantom Navigator\04Yamanja.wav Pre-gap length 0:00:02.20 Peak level 78.4 %
Track quality 100.0 %
Copy CRC 7CFAB342
Accurately ripped (confidence 2) [589F6766]
Copy OK

Track 5 Filename C:\Upload\Wayne Shorter - Phantom Navigator\05Forbidden, Plan-iT!.wav Peak level 75.6 %
Track quality 99.9 %
Copy CRC 70F727D4
Accurately ripped (confidence 2) [CB65A8FD]
Copy OK

Track 6 Filename C:\Upload\Wayne Shorter - Phantom Navigator\06Flagships.wav Pre-gap length 0:00:01.55 Peak level 67.6 %
Track quality 100.0 %
Copy CRC 073B2A81
Accurately ripped (confidence 2) [DE192AF7]
Copy OK

All tracks accurately ripped

No errors occurred

End of status report

Analyzed: Wayne Shorter / Phantom Navigator

DR Peak RMS Duration Track

DR13 -1.80 dB -16.60 dB 5:13 01-Condition Red
DR12 -3.35 dB -19.44 dB 6:13 02-Mahogany Bird
DR15 -0.25 dB -17.09 dB 7:58 03-Remote Control
DR12 -2.11 dB -17.41 dB 6:30 04-Yamanja
DR13 -2.42 dB -17.92 dB 6:10 05-Forbidden, Plan-iT!
DR14 -3.39 dB -21.24 dB 6:39 06-Flagships

Number of tracks: 6
Official DR value: DR13

Samplerate: 44100 Hz
Channels: 2
Bits per sample: 16
Bitrate: 712 kbps
Codec: FLAC

http://i72.fastpic.ru/big/2015/0708/45/589b761eb5791730f7c95298960ea345.jpg

http://i70.fastpic.ru/big/2015/0708/6c/1780b2507bdcb3142149f0b91eaf996c.jpg

Rip by (OHATA



DOWNLOAD LINKS:
Buy Premium To Support Me & Get Resumable Support & Max Speed


Links are Interchangeable - No Password - Single Extraction
Friends: Free Full Download | Torrent Magnet Download | Graphics Download | Watch Online Movies
Dear visitor, you are browsing our website as Guest.
We strongly recommend you to register and login to view hidden contents.

Comments:

Add Comments
 

This site doesn't store any files on its server. We only index and link to content provided by other sites.