2013Zone For Latest Downloads

 
     
 
Legal Downloads » Music » Nina Simone - Live At Town Hall & The Amazing Nina Simone (2010) 2CD
Menu
Home Applications
Games Movies
Music TV Shows
Torrents Graphics

Sitemap

RSS
 
Advanced Search
Last News
Site Info
Top Contributors:
  1    supper88 32766
  2    admin 32658
  3    Whisky 10080
  4    Shark_ 8911
  5    creativelivenew 8706
  6    whathesupa 2799
  7    candymypost 840
  8    hvnteam 629
  9    vuong87 3


Articles:
  This Hour: 0
  Today: 0
  This Month: 32
  All Time: 515669


Torrents:
  Today: 0
  Yesterday: 0
  All Time: 156685


Membership:
  Registered Today :0
  This Hour:0
  This Month:0
  Total:14
  Banned:1

{online}
{inform_torrent}
Friend:
We Recomend
Trend
Trend
onlinemovies

Search In Site

Music : Nina Simone - Live At Town Hall & The Amazing Nina Simone (2010) 2CD
 
http://i71.fastpic.ru/big/2015/0710/7c/2c621d41a071a3cf68b6f227cd7ba17c.jpg

Nina Simone - Live At Town Hall & The Amazing Nina Simone (2010) 2CD
EAC | FLAC | Image (Cue&Log) ~ 472 Mb (incl 5%) | Mp3 (CBR320) ~ 235 Mb (incl 5%) | Scans included
Genre: Vocal Jazz | Label: PLAY 24-7 | # PLAY 2-069 | Time: 01:26:20

"The two albums enclosed in At Town Hall/The Amazing Nina Simone bookend the remarkable summer of 1959 in the career of Nina Simone, when she recorded a studio session, The Amazing Nina Simone, in May, and in September appeared At Town Hall in a superlative performance that was recorded and soon issued. Just 26, Simone displayed great assurance, especially on the live date, casting off the cloak of the vocal jazz/standards singer and performing with her own trio featuring her lively piano. The studio date features an orchestra, but it too finds her early on in her recording career stamping her voice on standards "Willow Weep for Me" and "Blue Prelude"."



Tracklist:

CD1 - Live At Town Hall (1959):

01. Exactly Like You (03:12)
02. The Other Woman (Live) (02:59)
03. Under The Lowest (Live) (05:32)
04. You Can Have Him (Live) (05:52)
05. Summertime (Live) (05:35)
06. Cotton Eyed Joe (02:57)
07. Return Home (Live) (05:26)
08. Wild Is The Wind (Live) (03:28)
09. Fine And Mellow (03:27)
10. Black Is The Colour (Live) (03:33)
11. Love Me Or Leave Me (03:20)
12. My Baby Just Cares For Me (03:35)

CD2 - The Amazing Nina Simone (1959):

01. Blue Prelude (03:19)
02. Children Go Where I Send (05:58)
03. Tomorrow (02:59)
04. Stompn' At The Savoy (02:09)
05. It Might As Well Be Spring (03:53)
06. You've Been Gone To Long (02:10)
07. That's Him Over There (02:29)
08. Chilly Winds Don't Blow (02:41)
09. Theme From 'Milddle Of The Night' (02:28)
10. Can't Get Out Of This Mood (02:31)
11. Willow Weep For Me (03:12)
12. Solitare (03:22)


Exact Audio Copy V1.0 beta 3 from 29. August 2011

Отчёт EAC об извлечении, выполненном 4. ноября 2014, 18:31

Nina Simone / Live At Town Hall

Дисковод: ASUS DRW-1814BL Adapter: 1 ID: 1

Режим чтения : Достоверность
?спользование точного потока : Да
Отключение кэ?а аудио : Да
?спользование указателей C2 : Нет

Коррекция смещения при чтении : 6
Способность читать области Lead-in и Lead-out : Нет
Заполнение пропущенных сэмплов ти?иной : Да
Удаление блоков с ти?иной в начале и конце : Нет
При вычислениях CRC использовались нулевые сэмплы : Да
?нтерфейс : Встроенный Win32-интерфейс для Win NT/2000

Выходной формат : Пользовательский кодировщик
Выбранный битрейт : 128 kBit/s
Качество : Высокий
Добавление ID3-тега : Нет
Утилита сжатия : C:\Program Files\Exact Audio Copy\Flac\flac.exe
Дополнительные параметры : -V -8 -T "Date=%year%" -T "Genre=%genre%" %source%

TOC извлечённого CD Трек | Старт | Длительность | Начальный сектор | Конечный сектор

1 | 0:00.00 | 3:12.46 | 0 | 14445
2 | 3:12.46 | 2:59.21 | 14446 | 27891
3 | 6:11.67 | 5:32.34 | 27892 | 52825
4 | 11:44.26 | 5:52.69 | 52826 | 79294
5 | 17:37.20 | 5:35.15 | 79295 | 104434
6 | 23:12.35 | 2:57.70 | 104435 | 117779
7 | 26:10.30 | 5:26.66 | 117780 | 142295
8 | 31:37.21 | 3:28.41 | 142296 | 157936
9 | 35:05.62 | 3:27.24 | 157937 | 173485
10 | 38:33.11 | 3:33.71 | 173486 | 189531
11 | 42:07.07 | 3:20.67 | 189532 | 204598
12 | 45:27.74 | 3:35.70 | 204599 | 220793

Характеристики диапазона извлечения и сообщения об о?ибках

Выбранный диапазон ?мя файла C:\Documents and Settings\biotox\Рабочий стол\Новая папка\Nina Simone - Live At Town Hall.wav Пиковый уровень 100.0 %
Скорость извлечения 8.4 X
Качество диапазона 100.0 %
CRC теста 98324588
CRC копии 98324588
Копирование... OK

О?ибок не произо?ло


AccurateRip: сводка

Трек 1 отсутствует в базе данных
Трек 2 отсутствует в базе данных
Трек 3 отсутствует в базе данных
Трек 4 отсутствует в базе данных
Трек 5 отсутствует в базе данных
Трек 6 отсутствует в базе данных
Трек 7 отсутствует в базе данных
Трек 8 отсутствует в базе данных
Трек 9 отсутствует в базе данных
Трек 10 отсутствует в базе данных
Трек 11 отсутствует в базе данных
Трек 12 отсутствует в базе данных

Ни одного трека нет в базе AccurateRip

Конец отчёта

==== Контрольная сумма отчёта D38AAB6FDFC5060CD9B26FA97917C9F9FC4DFA9DDAB3D3D34A6A5D1EE6248AEE ====

foobar2000 1.2 / Dynamic Range Meter 1.1.1
log date: 2015-07-07 18:29:52

Analyzed: Nina Simone / Live At Town Hall

DR Peak RMS Duration Track

DR12 -0.40 dB -14.63 dB 3:13 01-Exactly Like You
DR11 -1.00 dB -14.75 dB 2:59 02-The Other Woman (Live)
DR11 -2.11 dB -16.21 dB 5:32 03-Under The Lowest (Live)
DR11 -0.96 dB -16.46 dB 5:53 04-You Can Have Him (Live)
DR11 0.00 dB -16.48 dB 5:35 05-Summertime (Live)
DR11 -0.93 dB -16.69 dB 2:58 06-Cotton Eyed Joe
DR11 0.00 dB -15.64 dB 5:27 07-Return Home (Live)
DR10 -2.17 dB -16.58 dB 3:29 08-Wild Is The Wind (Live)
DR13 0.00 dB -17.80 dB 3:27 09-Fine And Mellow
DR13 0.00 dB -17.99 dB 3:34 10-Black Is The Colour (Live)
DR11 -0.24 dB -13.37 dB 3:21 11-Love Me Or Leave Me
DR11 -0.20 dB -14.72 dB 3:36 12-My Baby Just Cares For Me

Number of tracks: 12
Official DR value: DR11

Samplerate: 44100 Hz
Channels: 2
Bits per sample: 16
Bitrate: 683 kbps
Codec: FLAC

Exact Audio Copy V1.0 beta 3 from 29. August 2011

Отчёт EAC об извлечении, выполненном 4. ноября 2014, 18:48

Nina Simone / The Amazing Nina Simone

Дисковод: ASUS DRW-1814BL Adapter: 1 ID: 1

Режим чтения : Достоверность
?спользование точного потока : Да
Отключение кэ?а аудио : Да
?спользование указателей C2 : Нет

Коррекция смещения при чтении : 6
Способность читать области Lead-in и Lead-out : Нет
Заполнение пропущенных сэмплов ти?иной : Да
Удаление блоков с ти?иной в начале и конце : Нет
При вычислениях CRC использовались нулевые сэмплы : Да
?нтерфейс : Встроенный Win32-интерфейс для Win NT/2000

Выходной формат : Пользовательский кодировщик
Выбранный битрейт : 128 kBit/s
Качество : Высокий
Добавление ID3-тега : Нет
Утилита сжатия : C:\Program Files\Exact Audio Copy\Flac\flac.exe
Дополнительные параметры : -V -8 -T "Date=%year%" -T "Genre=%genre%" %source%

TOC извлечённого CD Трек | Старт | Длительность | Начальный сектор | Конечный сектор

1 | 0:00.00 | 3:19.18 | 0 | 14942
2 | 3:19.18 | 5:58.65 | 14943 | 41857
3 | 9:18.08 | 2:59.13 | 41858 | 55295
4 | 12:17.21 | 2:09.28 | 55296 | 64998
5 | 14:26.49 | 3:53.67 | 64999 | 82540
6 | 18:20.41 | 2:10.20 | 82541 | 92310
7 | 20:30.61 | 2:29.11 | 92311 | 103496
8 | 22:59.72 | 2:41.10 | 103497 | 115581
9 | 25:41.07 | 2:28.06 | 115582 | 126687
10 | 28:09.13 | 2:31.57 | 126688 | 138069
11 | 30:40.70 | 3:12.16 | 138070 | 152485
12 | 33:53.11 | 3:22.74 | 152486 | 167709

Характеристики диапазона извлечения и сообщения об о?ибках

Выбранный диапазон ?мя файла C:\Documents and Settings\biotox\Рабочий стол\Новая папка (2)\Nina Simone - The Amazing Nina Simone.wav Пиковый уровень 97.5 %
Скорость извлечения 7.9 X
Качество диапазона 100.0 %
CRC теста B28C8CA8
CRC копии B28C8CA8
Копирование... OK

О?ибок не произо?ло


AccurateRip: сводка

Трек 1 отсутствует в базе данных
Трек 2 отсутствует в базе данных
Трек 3 отсутствует в базе данных
Трек 4 отсутствует в базе данных
Трек 5 отсутствует в базе данных
Трек 6 отсутствует в базе данных
Трек 7 отсутствует в базе данных
Трек 8 отсутствует в базе данных
Трек 9 отсутствует в базе данных
Трек 10 отсутствует в базе данных
Трек 11 отсутствует в базе данных
Трек 12 отсутствует в базе данных

Ни одного трека нет в базе AccurateRip

Конец отчёта

==== Контрольная сумма отчёта BBDB030F75AAA960D908976BE33F9468DB7359278F13F92FDF9FFBE483241D3A ====

foobar2000 1.2 / Dynamic Range Meter 1.1.1
log date: 2015-07-07 18:30:03

Analyzed: Nina Simone / The Amazing Nina Simone

DR Peak RMS Duration Track

DR9 -0.32 dB -11.00 dB 3:19 01-Blue Prelude
DR9 -0.83 dB -12.42 dB 5:59 02-Children Go Where I Send
DR9 -1.91 dB -12.84 dB 2:59 03-Tomorrow
DR10 -0.61 dB -11.86 dB 2:09 04-Stompn' At The Savoy
DR9 -0.62 dB -12.39 dB 3:54 05-It Might As Well Be Spring
DR10 -0.31 dB -11.79 dB 2:10 06-You've Been Gone To Long
DR12 -0.42 dB -17.50 dB 2:29 07-That's Him Over There
DR10 -0.56 dB -11.64 dB 2:41 08-Chilly Winds Don't Blow
DR10 -0.29 dB -13.48 dB 2:28 09-Theme From 'Milddle Of The Night'
DR10 -0.35 dB -11.98 dB 2:32 10-Can't Get Out Of This Mood
DR10 -0.22 dB -13.29 dB 3:12 11-Willow Weep For Me
DR11 -0.21 dB -15.44 dB 3:23 12-Solitare

Number of tracks: 12
Official DR value: DR10

Samplerate: 44100 Hz
Channels: 2
Bits per sample: 16
Bitrate: 737 kbps
Codec: FLAC

http://i70.fastpic.ru/big/2015/0710/f1/c339484cae0e05fa5fbdd3c327fe26f1.jpg

http://i69.fastpic.ru/big/2015/0710/6d/5d7ee56fbaa48835046107b42a5b4f6d.jpg

All thanks to original releaser - biotox18
Password: designol

DOWNLOAD LINKS:
Buy Premium To Support Me & Get Resumable Support & Max Speed


Links are Interchangeable - No Password - Single Extraction

 
 
 
Dear visitor, you went to the site as an unregistered user. We encourage you to register or enter the site under your name.
 
   
 
 (Votes #: 0)