2013Zone For Latest Downloads

 
     
 
Legal Downloads » Music » Bobby Lyle - Rhythm Stories (1994) {Atlantic}
Menu
Home Applications
Games Movies
Music TV Shows
Torrents Graphics

Sitemap

RSS
 
Advanced Search
Last News
Site Info
Top Contributors:
  1    supper88 32766
  2    admin 32693
  3    Whisky 10080
  4    Shark_ 8911
  5    creativelivenew 8706
  6    whathesupa 2799
  7    candymypost 840
  8    hvnteam 629
  9    vuong87 3


Articles:
  This Hour: 0
  Today: 0
  This Month: 0
  All Time: 515561


Torrents:
  Today: 0
  Yesterday: 0
  All Time: 156684


Membership:
  Registered Today :0
  This Hour:0
  This Month:0
  Total:14
  Banned:1

{online}
{inform_torrent}
Friend:
We Recomend
Trend
Trend
Ad1

Search In Site

Music : Bobby Lyle - Rhythm Stories (1994) {Atlantic}
 
http://i72.fastpic.ru/big/2015/0711/25/fd8b9d38132e9dd11f1d853ffd321225.jpg

Bobby Lyle - Rhythm Stories (1994) {Atlantic}
EAC 0.99pb4 | FLAC Image | Cue+Log | Full Scans 300dpi | 398MB + 5% Recovery
Genre: Jazz-Funk, Smooth Jazz, Soul

"Bobby Lyle's success since the release of 1989's classic Ivory Dreams has been due chiefly to his astonishing ability to combine acoustic piano elegance with relentlessly funky grooves, always on the same album, often on the same cut. That album's juxtaposition of "Lush Life" and "Loco-motion" offers a great case in point. While Lyle draws brightly on tradition, he loves to go wild and urban any time he gets a chance, yet while most of his albums since then have been solid, he has never seemed to measure up to the promise of that auspicious debut."

Track List
01. Cool Walk 5:19
02. Here We Go Again 4:57
03. On The Spot 5:12
04. B's Mood 5:49
05. Funk Street (Jazz-Hip Hop Funky Be Bop) 5:12
06. Higher Ground 5:09
07. Exotic Love
08. Don't You Know
09. Tonight We Love
10. Anthem
11. Love Suite

musicians
Bobby Lyle - keyboards
Gerald Albright - saxophone
Marcus Miller - bass
Stanley Clarke - tenor bass
Larry Kimpel - bass
Sonny Emory - drums
Paul Jackson, Jr. - guitar
Everette Harp - saxophone
Kenny Garrett - alto saxophone
Lenny Castro - percussion
Reggie Hamilton - bass
Dwight Fills - guitar
Ray Fuller - guitar
Kirk Whalum - saxophone
Michael "Patches" Stewart - trumpet
Larry Cohn - synths
Carl Burnette - guitar
Peter White - acoustic guitar
Fred White - vocals
Darryl Phinnessy - vocals
Dorian Holly - vocals
Alex Brown, Carmen Carter, Lori Perry, Niki Haris - vocals

Produced by Bobby Lyle

Exact Audio Copy V0.99 prebeta 4 from 23. January 2008

EAC extraction logfile from 3. March 2008, 22:27

Bobby Lyle / Rhythm Stories

Used drive : PIONEER DVD-RW DVR-106D Adapter: 3 ID: 1

Read mode : Secure
Utilize accurate stream : Yes
Defeat audio cache : Yes
Make use of C2 pointers : No

Read offset correction

: 48
Overread into Lead-In and Lead-Out : No
Fill up missing offset samples with silence : Yes
Delete leading and trailing silent blocks : No
Null samples used in CRC calculations : No
Used interface
: Installed external ASPI interface

Used output format : Internal WAV Routines
Sample format : 44.100 Hz; 16 Bit; Stereo

TOC of the extracted CD Track | Start | Length | Start sector | End sector
--1 | 0:00.32 | 5:21.03 | 32 | 24109 2 | 5:21.35 | 4:58.20 | 24110 | 46479 3 | 10:19.55 | 5:14.55 | 46480 | 70084 4 | 15:34.35 | 5:50.20 | 70085 | 96354 5 | 21:24.55 | 5:14.00 | 96355 | 119904 6 | 26:38.55 | 5:09.32 | 119905 | 143111 7 | 31:48.12 | 5:47.43 | 143112 | 169179 8 | 37:35.55 | 5:25.52 | 169180 | 193606 9 | 43:01.32 | 5:14.08 | 193607 | 217164
10 | 48:15.40 | 5:25.55 | 217165 | 241594
11 | 53:41.20 | 5:19.12 | 241595 | 265531

Range status and errors

Selected range Filename E:\Lossless\Bobby Lyle - Rhythm Stories\cdimage.wav Peak level 100.0 %
Range quality 100.0 %
Test CRC 311554A6
Copy CRC 311554A6
Copy OK

No errors occurred


AccurateRip summary

Track 1 not present in database
Track 2 not present in database
Track 3 not present in database
Track 4 not present in database
Track 5 not present in database
Track 6 not present in database
Track 7 not present in database
Track 8 not present in database
Track 9 not present in database
Track 10 not present in database
Track 11 not present in database

None of the tracks are present in the AccurateRip database

End of status report

Analyzed: Bobby Lyle / Rhythm Stories

DR Peak RMS Duration Track

DR11 -0.01 dB -12.67 dB 5:21 01-Cool Walk
DR11 -0.13 dB -13.35 dB 4:58 02-Here We Go Again
DR10 0.00 dB -12.10 dB 5:15 03-On The Spot
DR12 -0.16 dB -15.05 dB 5:50 04-B's Mood
DR10 0.00 dB -11.83 dB 5:14 05-Funk Street (Jazz-Hip Hop Funky Be Bop)
DR10 0.00 dB -12.29 dB 5:09 06-Higher Ground
DR12 -0.07 dB -13.97 dB 5:48 07-Exotic Love
DR14 -0.24 dB -15.79 dB 5:26 08-Don't You Know
DR12 -0.02 dB -14.16 dB 5:14 09-Tonight We Love
DR11 0.00 dB -13.14 dB 5:26 10-Anthem
DR13 -0.17 dB -15.02 dB 5:19 11-Love Suite

Number of tracks: 11
Official DR value: DR12

Samplerate: 44100 Hz
Channels: 2
Bits per sample: 16
Bitrate: 932 kbps
Codec: FLAC

http://i69.fastpic.ru/big/2015/0711/07/cfd6dfbaa4f4f274ea12b8b8946fcb07.jpg

http://i71.fastpic.ru/big/2015/0711/f7/0bf6fca75aa62292427541532549d3f7.jpg

http://i71.fastpic.ru/big/2015/0711/6f/84b5f24a7cf4c6cfa90cbcaf7ba29b6f.jpg

Rip by kamil


DOWNLOAD LINKS:
Buy Premium To Support Me & Get Resumable Support & Max Speed


Links are Interchangeable - No Password - Single Extraction

Bobby Lyle - Rhythm Stories (1994) {Atlantic} Fast Download


Ad2

 
 
 
Dear visitor, you went to the site as an unregistered user. We encourage you to register or enter the site under your name.
 
   
 
 (Votes #: 0)