2013Zone For Latest Downloads

 
     
 
Legal Downloads » Music » Freddie Mercury - Mr. Bad Guy (1985) [Japan, 1-st press, CBS/Sony 32DP 227]
Menu
Home Applications
Games Movies
Music TV Shows
Torrents Graphics

Sitemap

RSS
 
Advanced Search
Last News
Site Info
Top Contributors:
  1    supper88 32766
  2    admin 32756
  3    Whisky 10080
  4    Shark_ 8911
  5    creativelivenew 8706
  6    whathesupa 2799
  7    candymypost 840
  8    hvnteam 629
  9    vuong87 3


Articles:
  This Hour: 0
  Today: 0
  This Month: 0
  All Time: 515443


Torrents:
  Today: 0
  Yesterday: 0
  All Time: 156715


Membership:
  Registered Today :0
  This Hour:0
  This Month:0
  Total:14
  Banned:1

{online}
{inform_torrent}
Friend:
Full Download Scripts
Torrent Download
Trend
Trend

Search In Site

Music : Freddie Mercury - Mr. Bad Guy (1985) [Japan, 1-st press, CBS/Sony 32DP 227]
 
http://i57.fastpic.ru/big/2015/0713/e2/a7e2841650e7aed246cbc2b0766466e2.jpg

Freddie Mercury - Mr. Bad Guy (1985)
EAC Rip | FLAC (Img) + Cue + Log ~ 400 Mb | MP3 CBR320 ~ 158 Mb
Scans Included (JPG, 300 dpi) | RAR 5% Recovery
Pop Rock, Disco | CBS/Sony #32DP 227

"Mr. Bad Guy is the first solo album from Queen singer, Freddie Mercury. Released in 1985, during a period in which Queen were on hiatus from recordings, it contains eleven songs, all written by him. It was dedicated "to my cat Jerry-also Tom, Oscar and Tiffany, and all the cat lovers across the universe-screw everybody else". For the album, Mercury compiled influences ranging from disco to dance music. It was a contrast to typical Queen work, as they were rock-orientated. The album took nearly two years to record as Mercury had to gather enough material, while committing to band activities. Initially, the album was supposed to feature duets with Mercury and Michael Jackson..."

Wiki | Discogs | All Music
***************

http://i58.fastpic.ru/big/2015/0713/90/abea20fd8a1ecd89d7ee0663ced98c90.jpg

Track List:

01. Let's Turn It On [03:43]
02. Made In Heaven [04:07]
03. I Was Born To Love You [03:40]
04. Foolin' Around [03:30]
05. Your Kind Of Lover [03:35]
06. Mr. Bad Guy [04:10]
07. Man Made Paradise [04:10]
08. There Must Be More To Life Than This [03:02]
09. Living On My Own [03:24]
10. My Love Is Dangerous [03:44]
11. Love Me Like There Is No Tomorrow [03:47]
12. Let's Turn It On (12' Version) [05:07]
13. I Was Born To Love You (12' Version) [07:03]
14. Living On My Own (12' Version) [06:42]

Exact Audio Copy V1.0 beta 4 from 7. December 2014

Отчёт EAC об извлечении, выполненном 9. июля 2015, 12:43

Freddie Mercury / Mr. Bad Guy

Дисковод: ASUS DRW-24F1ST a Adapter: 1 ID: 0

Режим чтения : Достоверность
?спользование точного потока : Да
Отключение кэ?а аудио : Да
?спользование указателей C2 : Нет

Коррекция смещения при чтении : 6
Способность читать области Lead-in и Lead-out : Нет
Заполнение пропущенных сэмплов ти?иной : Да
Удаление блоков с ти?иной в начале и конце : Нет
При вычислениях CRC использовались нулевые сэмплы : Да
?нтерфейс : Встроенный Win32-интерфейс для Win NT/2000

Выходной формат : Пользовательский кодировщик
Выбранный битрейт : 128 kBit/s
Качество : Высокий
Добавление ID3-тега : Нет
Утилита сжатия : C:\Program Files\Exact Audio Copy\Flac\flac.exe
Дополнительные параметры : -V -8 -T "Date=%year%" -T "Genre=%genre%" %source%

TOC извлечённого CD Трек | Старт | Длительность | Начальный сектор | Конечный сектор

1 | 0:00.00 | 3:42.32 | 0 | 16681
2 | 3:42.32 | 4:06.35 | 16682 | 35166
3 | 7:48.67 | 3:39.03 | 35167 | 51594
4 | 11:27.70 | 3:29.72 | 51595 | 67341
5 | 14:57.67 | 3:34.53 | 67342 | 83444
6 | 18:32.45 | 4:09.70 | 83445 | 102189
7 | 22:42.40 | 4:09.12 | 102190 | 120876
8 | 26:51.52 | 3:01.73 | 120877 | 134524
9 | 29:53.50 | 3:23.37 | 134525 | 149786
10 | 33:17.12 | 3:43.33 | 149787 | 166544
11 | 37:00.45 | 3:46.12 | 166545 | 183506
12 | 40:46.57 | 5:06.43 | 183507 | 206499
13 | 45:53.25 | 7:02.25 | 206500 | 238174
14 | 52:55.50 | 6:41.02 | 238175 | 268251

Характеристики диапазона извлечения и сообщения об о?ибках

Выбранный диапазон ?мя файла C:\Users\Erik\Desktop\Freddie Mercury - Mr. Bad Guy.wav Пиковый уровень 100.0 %
Скорость извлечения 2.9 X
Качество диапазона 100.0 %
CRC теста 49F7BECC
CRC копии 49F7BECC
Копирование... OK

О?ибок не произо?ло


AccurateRip: сводка

Трек 1 : извлечено точно (доверие 2) [9D76835F] (AR v2)
Трек 2 : извлечено точно (доверие 2) [0739808C] (AR v2)
Трек 3 : извлечено точно (доверие 2) [4EA8F1A3] (AR v2)
Трек 4 : извлечено точно (доверие 2) [C485E606] (AR v2)
Трек 5 : извлечено точно (доверие 2) [C4F8C406] (AR v2)
Трек 6 : извлечено точно (доверие 2) [6CA47643] (AR v2)
Трек 7 : извлечено точно (доверие 2) [084797C4] (AR v2)
Трек 8 : извлечено точно (доверие 2) [1D70C7E4] (AR v2)
Трек 9 : извлечено точно (доверие 2) [AB0ADAF4] (AR v2)
Трек 10 : извлечено точно (доверие 2) [EF01CB80] (AR v2)
Трек 11 : извлечено точно (доверие 2) [1D48C2B0] (AR v2)
Трек 12 : извлечено точно (доверие 2) 14CE0EF (AR v2)
Трек 13 : извлечено точно (доверие 2) [103E1A7F] (AR v2)
Трек 14 : извлечено точно (доверие 2) [E3E4B98F] (AR v2)

Все треки извлечены точно

Конец отчёта

- CUETools DB Plugin V2.1.4

[CTDB TOCID: qrBw2G4kvZX.VWzqjj_TAj5mw.o-] found
Submit result: qrBw2G4kvZX.VWzqjj_TAj5mw.o- has been confirmed
Track | CTDB Status
1 | (4/4) Accurately ripped
2 | (4/4) Accurately ripped
3 | (4/4) Accurately ripped
4 | (4/4) Accurately ripped
5 | (4/4) Accurately ripped
6 | (4/4) Accurately ripped
7 | (4/4) Accurately ripped
8 | (4/4) Accurately ripped
9 | (4/4) Accurately ripped
10 | (4/4) Accurately ripped
11 | (4/4) Accurately ripped
12 | (4/4) Accurately ripped
13 | (4/4) Accurately ripped
14 | (4/4) Accurately ripped

==== Контрольная сумма отчёта CB5F17C53A12DC28AA29E420322391A202534A9279C7B94B68F2C9F98542480D ====

foobar2000 1.2.6 / Dynamic Range Meter 1.1.1
log date: 2015-07-11 18:23:33

Analyzed: Freddie Mercury / Mr. Bad Guy

DR Peak RMS Duration Track

DR11 -2.20 dB -15.52 dB 3:42 01-Let's Turn It On
DR11 -1.50 dB -16.90 dB 4:06 02-Made In Heaven
DR11 -1.29 dB -15.35 dB 3:39 03-I Was Born To Love You
DR13 -1.85 dB -16.77 dB 3:30 04-Foolin' Around
DR13 -1.25 dB -17.38 dB 3:35 05-Your Kind Of Lover
DR13 -1.54 dB -17.11 dB 4:10 06-Mr. Bad Guy
DR12 -2.67 dB -18.36 dB 4:09 07-Man Made Paradise
DR11 -3.75 dB -18.94 dB 3:02 08-There Must Be More To Life Than This
DR13 -1.81 dB -16.81 dB 3:23 09-Living On My Own
DR12 -2.83 dB -17.65 dB 3:43 10-My Love Is Dangerous
DR13 -3.00 dB -19.03 dB 3:46 11-Love Me Like There Is No Tomorrow
DR12 -0.11 dB -15.05 dB 5:07 12-Let's Turn It On (12' Version)
DR13 -0.08 dB -15.18 dB 7:02 13-I Was Born To Love You (12' Version)
DR13 0.00 dB -16.72 dB 6:41 14-Living On My Own (12' Version)

Number of tracks: 14
Official DR value: DR12

Samplerate: 44100 Hz
Channels: 2
Bits per sample: 16
Bitrate: 858 kbps
Codec: FLAC

[CUETools log; Date: 11.07.2015 18:23:48; Version: 2.1.5]
[CTDB TOCID: qrBw2G4kvZX.VWzqjj_TAj5mw.o-] found.
Track | CTDB Status
1 | (6/6) Accurately ripped
2 | (6/6) Accurately ripped
3 | (6/6) Accurately ripped
4 | (6/6) Accurately ripped
5 | (6/6) Accurately ripped
6 | (6/6) Accurately ripped
7 | (6/6) Accurately ripped
8 | (6/6) Accurately ripped
9 | (6/6) Accurately ripped
10 | (6/6) Accurately ripped
11 | (6/6) Accurately ripped
12 | (6/6) Accurately ripped
13 | (6/6) Accurately ripped
14 | (6/6) Accurately ripped
[AccurateRip ID: 001bd74d-012bd748-d70df80e] found.
Track [ CRC | V2 ] Status
01 [4596bede|9d76835f] (0+2/2) Accurately ripped
02 [3a2a6e81|0739808c] (0+2/2) Accurately ripped
03 [44acd70e|4ea8f1a3] (0+2/2) Accurately ripped
04 [3484f08a|c485e606] (0+2/2) Accurately ripped
05 [60928858|c4f8c406] (0+2/2) Accurately ripped
06 [d2562ca8|6ca47643] (0+2/2) Accurately ripped
07 [aae1da31|084797c4] (0+2/2) Accurately ripped
08 [9d9f395c|1d70c7e4] (0+2/2) Accurately ripped
09 f253095|ab0adaf4 (0+2/2) Accurately ripped
10 [942bd0e2|ef01cb80] (0+2/2) Accurately ripped
11 [cb94f527|1d48c2b0] (0+2/2) Accurately ripped
12 [d53c899f|b14ce0ef] (0+2/2) Accurately ripped
13 [7302788d|103e1a7f] (0+2/2) Accurately ripped
14 [453f6fd9|e3e4b98f] (0+2/2) Accurately ripped

Track Peak [ CRC32 ] [W/O NULL] [ LOG ]
-- 100,0 [49F7BECC] [C9A9C516] CRC32
01 77,6 [82A0AD60] [04CED7D0]
02 84,1 [4AD61D05] [7B9CB440]
03 86,2 [E0011456] [FE5CBFC2]
04 80,7 [90984DE6] [03CAF88A]
05 86,5 [E4711A58] [8D24B5F3]
06 83,7 [8D17EF54] 65D5EB6
07 73,5 [1339C5A1] [E1923769]
08 64,9 [565217ED] [2589D7B6]
09 81,1 [53A8AE0F] [7C033649]
10 72,2 [6A25D69A] [C9B83EB3]
11 70,7 [E6C258CF] [2CD0ADEC]
12 98,8 [05D49E23] [7F3EC1B9]
13 99,0 [3AF346C7] [DD6852EC]
14 100,0 [0CE15E70] [1EA48587]

http://i58.fastpic.ru/big/2015/0713/e8/741e6c06dcbd7c49923a9f6e1206e0e8.jpg

All thanks go to Erik


DOWNLOAD LINKS:
Buy Premium To Support Me & Get Resumable Support & Max Speed


Links are Interchangeable - No Password - Single Extraction

Freddie Mercury - Mr. Bad Guy (1985) [Japan, 1-st press, CBS/Sony 32DP 227] Fast Download



 
 
 
Dear visitor, you went to the site as an unregistered user. We encourage you to register or enter the site under your name.
 
   
 
 (Votes #: 0)