2013Zone For Latest Downloads

 
     
 
Legal Downloads » Music » Grace Jones - Slave To The Rhythm (1985) [2015, LMLR 782 160]
Menu
Home Applications
Games Movies
Music TV Shows
Torrents Graphics

Sitemap

RSS
 
Advanced Search
Last News
Site Info
Top Contributors:
  1    supper88 32766
  2    admin 32630
  3    Whisky 10080
  4    Shark_ 8911
  5    creativelivenew 8706
  6    whathesupa 2799
  7    candymypost 840
  8    hvnteam 629
  9    vuong87 3


Articles:
  This Hour: 14
  Today: 14
  This Month: 44
  All Time: 515735


Torrents:
  Today: 0
  Yesterday: 0
  All Time: 156682


Membership:
  Registered Today :0
  This Hour:0
  This Month:0
  Total:14
  Banned:1

{online}
{inform_torrent}
Friend:
We Recomend
Trend
Trend
onlinemovies

Search In Site

Music : Grace Jones - Slave To The Rhythm (1985) [2015, LMLR 782 160]
 
http://i70.fastpic.ru/big/2015/0727/d5/2b254f6dc07bb9fdd10d3ee34b9f08d5.jpg

Grace Jones - Slave To The Rhythm (1985)
EAC | Flac(Image) + Cue + Log & MP3 CBR 320Kbps
LMLR 782 160 | France | ~ 403 or 105 Mb | Scans(png) -> 109 Mb
Gogo / Soul / Funk

"An audio biography of Grace Jones, produced by Trevor Horn, it's a sonic treat along the lines of Yes's 90125 or Frankie Goes to Hollywood's first album (both produced by Horn). The music ranges from slick R&B runaway grooves to striking audio montages, interrupted occasionally by conversation about Jones's life. Serious ear candy..."


Tracklist:

01 Jones The Rhythm
02 The Fashion Show
03 The Frog & The Princess
04 Operattack
05 Slave To The Rhythm
06 The Crossing (Ooh The Action)
07 Don't Cry - It's Only The Rhythm
08 Ladies And Gentlemen: Miss Grace Jones

Exact Audio Copy V1.1 from 23. June 2015

EAC extraction logfile from 20. July 2015, 20:21

Grace Jones / Slave To The Rhythm

Used drive : PLEXTOR BD-R PX-B950SA Adapter: 1 ID: 1

Read mode : Secure
Utilize accurate stream : Yes
Defeat audio cache : Yes
Make use of C2 pointers : No

Read offset correction

: 6
Overread into Lead-In and Lead-Out : No
Fill up missing offset samples with silence : Yes
Delete leading and trailing silent blocks : No
Null samples used in CRC calculations : Yes
Used interface
: Native Win32 interface for Win NT & 2000

Used output format : Internal WAV Routines
Sample format : 44.100 Hz; 16 Bit; Stereo

TOC of the extracted CD Track | Start | Length | Start sector | End sector
--1 | 0:00.00 | 6:25.69 | 0 | 28943 2 | 6:25.69 | 6:25.70 | 28944 | 57888 3 | 12:51.64 | 7:02.02 | 57889 | 89540 4 | 19:53.66 | 2:45.59 | 89541 | 101974 5 | 22:39.50 | 6:35.07 | 101975 | 131606 6 | 29:14.57 | 4:57.39 | 131607 | 153920 7 | 34:12.21 | 2:53.37 | 153921 | 166932 8 | 37:05.58 | 5:58.20 | 166933 | 193802

Range status and errors

Selected range Filename C:\Users\Meijin\Desktop\ALLexxess\Grace Jones\1985 Slave To The Rhythm (Vinyl Replica LMLR France 2015)\Grace Jones - Slave To The Rhythm.wav Peak level 99.4 %
Extraction speed 6.8 X
Range quality 100.0 %
Test CRC 29528EAD
Copy CRC 29528EAD
Copy OK

No errors occurred


AccurateRip summary

Track 1 not present in database
Track 2 not present in database
Track 3 not present in database
Track 4 not present in database
Track 5 not present in database
Track 6 not present in database
Track 7 not present in database
Track 8 not present in database

None of the tracks are present in the AccurateRip database

End of status report

- CUETools DB Plugin V2.1.6

[CTDB TOCID: uP0gcaono3aFr0NwmwM9WBkQcW8-] found
Submit result: uP0gcaono3aFr0NwmwM9WBkQcW8- has been confirmed
Track | CTDB Status
1 | (1/1) Accurately ripped
2 | (1/1) Accurately ripped
3 | (1/1) Accurately ripped
4 | (1/1) Accurately ripped
5 | (1/1) Accurately ripped
6 | (1/1) Accurately ripped
7 | (1/1) Accurately ripped
8 | (1/1) Accurately ripped

==== Log checksum A4568F652F8008A1D001FC943272B6C56112875B450F05E2256C357AA7A4E9E7 ====

foobar2000 1.2.9 / Dynamic Range Meter 1.1.1
log date: 2015-07-24 16:19:24

Analyzed: Grace Jones / Slave To The Rhythm

DR Peak RMS Duration Track

DR9 -0.05 dB -10.96 dB 6:26 01-Jones The Rhythm
DR8 -0.05 dB -10.38 dB 6:26 02-The Fashion Show
DR8 -0.05 dB -9.80 dB 7:02 03-The Frog And The Princess
DR6 -0.05 dB -11.30 dB 2:46 04-Operattack
DR7 -0.05 dB -9.74 dB 6:35 05-Slave To The Rhythm
DR7 -0.05 dB -10.62 dB 4:58 06-The Crossing (Ooh The Action)
DR8 -0.05 dB -12.38 dB 2:53 07-Don't Cry - It's Only The Rhythm
DR8 -0.05 dB -11.85 dB 5:58 08-Ladies And Gentlemen: Miss Grace Jones

Number of tracks: 8
Official DR value: DR8

Samplerate: 44100 Hz
Channels: 2
Bits per sample: 16
Bitrate: 924 kbps
Codec: FLAC

[CUETools log; Date: 24.07.2015 16:15:06; Version: 2.1.4]
[CTDB TOCID: uP0gcaono3aFr0NwmwM9WBkQcW8-] found.
Track | CTDB Status
1 | (3/3) Accurately ripped
2 | (3/3) Accurately ripped
3 | (3/3) Accurately ripped
4 | (3/3) Accurately ripped
5 | (3/3) Accurately ripped
6 | (3/3) Accurately ripped
7 | (3/3) Accurately ripped
8 | (3/3) Accurately ripped
[AccurateRip ID: 000e1bc5-005c42a7-6b0a1808] disk not present in database.

Track Peak [ CRC32 ] [W/O NULL] [ LOG ]
-- 99,4 [29528EAD] [D26A7F78] CRC32
01 99,4 [79616B12] [126A55A9]
02 99,4 [E37593EA] [2DCE7D8D]
03 99,4 [12D1CCD0] [3A83661E]
04 99,4 [A670F44F] [8765A1F7]
05 99,4 [81D8767D] [FFA16262]
06 99,4 [2C476A83] [86BA9831]
07 99,4 [820C37E9] [3A8E5750]
08 99,4 [A48215F7] [2AFE13C2]

http://i71.fastpic.ru/big/2015/0727/85/526c8edb7d3bebb188682afdee8b2485.jpg

DOWNLOAD LINKS:
Buy Premium To Support Me & Get Resumable Support & Max Speed


Links are Interchangeable - No Password - Single Extraction

 
 
 
Dear visitor, you went to the site as an unregistered user. We encourage you to register or enter the site under your name.
 
   
 
 (Votes #: 0)