2013Zone For Latest Downloads

 
     
 
Legal Downloads » Music » Frank Zappa - Strictly Genteel: A "Classical" Introduction To Frank Zappa (1997) {Rykodisc Remaster Complete Series}
Menu
Home Applications
Games Movies
Music TV Shows
Torrents Graphics

Sitemap

RSS
 
Advanced Search
Last News
Site Info
Top Contributors:
  1    supper88 32766
  2    admin 32671
  3    Whisky 10080
  4    Shark_ 8911
  5    creativelivenew 8706
  6    whathesupa 2799
  7    candymypost 840
  8    hvnteam 629
  9    vuong87 3


Articles:
  This Hour: 0
  Today: 20
  This Month: 78
  All Time: 515636


Torrents:
  Today: 0
  Yesterday: 0
  All Time: 156702


Membership:
  Registered Today :0
  This Hour:0
  This Month:0
  Total:14
  Banned:1

{online}
{inform_torrent}
Friend:
We Recomend
Trend
Trend
Ad1

Search In Site

Music : Frank Zappa - Strictly Genteel: A "Classical" Introduction To Frank Zappa (1997) {Rykodisc Remaster Complete Series}
 

http://i71.fastpic.ru/big/2015/0730/8b/bb0f8ef95de25cdab87645a98a34fd8b.jpg
Frank Zappa - Strictly Genteel: A "Classical" Introduction To Frank Zappa (1997) {Rykodisc Remaster Complete Series}
EAC rip (secure mode) | FLAC (tracks)+CUE+LOG -> 414 Mb | MP3 @320 -> 160 Mb
Full Artwork @ 600 dpi (png) -> 167 Mb | 5% repair rar
© 1997 Rykodisc | RCD 10578
Classical / Modern Composition / Avant-Garde

"A more than adequate introduction to the world of Frank Zappa's instrumental music. A great deal of attention was focused on Zappa's often infantile lyrics, sometimes to the extent that the quality of Zappa's music was ignored. From a performance standpoint, the music was often a challenge (becoming almost impossible once Zappa was composing for the Synclavier); from a compositional standpoint, Zappa's instrumental music shows its 20th-century influences in no uncertain terms."

http://i70.fastpic.ru/big/2015/0730/fa/98939c33b1e4f5ba97cdb539e57491fa.jpg

"Subtitled "A "Classical" Introduction to Frank Zappa," this lives up to that claim in grand style. The set draws from his orchestral and small ensemble instrumental work. Three performances are culled from THE YELLOW SHARK and the remaining run the gamut from the expected ("Little Umbrellas" from HOT RATS, JAZZ FROM HELL's "G-Spot Tornado," the London Symphony performing the title track) to the forgotten nugget ("Aybe Sea" from BURNT WEENY SANDWICH, "Duke of Prunes" from ORCHESTRAL FAVORITES). Not only does this collection serve as a proper overview of Zappa's prodigious output as a composer, but it also stands up perfectly well in its own right as a smartly sequenced and completely engaging album. It was assembled posthumously, but he'd no doubt have approved."


http://i71.fastpic.ru/big/2015/0730/8a/3e62aa6db2fcd0c1d45308b32989698a.jpg


tracklist:
01 - Uncle Meat- Main Title Theme
02 - Regyptian Strut
03 - Pedro's Dowry
04 - Outrage At Valdez
05 - Little Umbrellas
06 - Run Home Slow Theme
07 - Dwarf Nebula Processional March & Dwarf Nebula
08 - Dupree's Paradise
09 - Opus 1, No.3, 2nd Movement, PRESTO
10 - Duke Of Prunes
11 - Aybe Sea
12 - Naval Aviation In Art
13 - G-Spot Tornado
14 - Bob In Dacron, First Movement
15 - Opus 1, No.4, 2nd Movement, ALLEGRO
16 - Dog Breath Variations
17 - Uncle Meat
18 - Strictly Genteel

Exact Audio Copy V1.1 from 23. June 2015

EAC extraction logfile from 28. July 2015, 9:45

Frank Zappa / Strictly Genteel

Used drive : TSSTcorpCDDVDW SE-208DB Adapter: 7 ID: 0

Read mode : Secure
Utilize accurate stream : Yes
Defeat audio cache : Yes
Make use of C2 pointers : No

Read offset correction

: 6
Overread into Lead-In and Lead-Out : No
Fill up missing offset samples with silence : Yes
Delete leading and trailing silent blocks : No
Null samples used in CRC calculations : Yes
Used interface
: Installed external ASPI interface
Gap handling
: Appended to previous track

Used output format : User Defined Encoder
Selected bitrate : 1024 kBit/s
Quality : High
Add ID3 tag : No
Command line compressor : C:\Program Files (x86)\FLAC Frontend\tools\flac.exe
Additional command line options : -8 -V -T "ARTIST=%artist%" -T "TITLE=%title%" -T "ALBUM=%albumtitle%" -T "DATE=%year%" -T "TRACKNUMBER=%tracknr%" -T "TOTALTRACKS=%numtracks%" -T "GENRE=%genre%" -T "ALBUMARTIST=%albumartist%" -T "ALBUM ARTIST=%albumartist%" -T "COMMENT=EAC Secure Mode, Test & Copy, AccurateRip, FLAC -8" %source%

TOC of the extracted CD Track | Start | Length | Start sector | End sector
--1 | 0:00.00 | 1:55.47 | 0 | 8671 2 | 1:55.47 | 4:13.10 | 8672 | 27656 3 | 6:08.57 | 7:41.20 | 27657 | 62251 4 | 13:50.02 | 3:09.68 | 62252 | 76494 5 | 16:59.70 | 3:03.72 | 76495 | 90291 6 | 20:03.67 | 1:25.33 | 90292 | 96699 7 | 21:29.25 | 2:12.22 | 96700 | 106621 8 | 23:41.47 | 7:53.48 | 106622 | 142144 9 | 31:35.20 | 1:50.00 | 142145 | 150394
10 | 33:25.20 | 4:20.00 | 150395 | 169894
11 | 37:45.20 | 2:46.35 | 169895 | 182379
12 | 40:31.55 | 2:42.02 | 182380 | 194531
13 | 43:13.57 | 3:17.38 | 194532 | 209344
14 | 46:31.20 | 5:36.55 | 209345 | 234599
15 | 52:08.00 | 3:01.57 | 234600 | 248231
16 | 55:09.57 | 2:06.70 | 248232 | 257751
17 | 57:16.52 | 2:51.23 | 257752 | 270599
18 | 60:08.00 | 6:57.15 | 270600 | 301889

Track 1 Filename M:\_EAC\Frank Zappa - Strictly Genteel (1997) [FLAC] {Rykodisc RCD 10578}\01 - Uncle Meat- Main Title Theme.wav Pre-gap length 0:00:02.00 Peak level 91.9 %
Extraction speed 0.9 X
Track quality 100.0 %
Test CRC E3E57E93
Copy CRC E3E57E93
Accurately ripped (confidence 16) [50F1CCC0] (AR v2)
Copy OK

Track 2 Filename M:\_EAC\Frank Zappa - Strictly Genteel (1997) [FLAC] {Rykodisc RCD 10578}\02 - Regyptian Strut.wav Peak level 94.4 %
Extraction speed 1.1 X
Track quality 100.0 %
Test CRC 3D775804
Copy CRC 3D775804
Accurately ripped (confidence 16) [D09B8F0A] (AR v2)
Copy OK

Track 3 Filename M:\_EAC\Frank Zappa - Strictly Genteel (1997) [FLAC] {Rykodisc RCD 10578}\03 - Pedro's Dowry.wav Peak level 100.0 %
Extraction speed 1.3 X
Track quality 100.0 %
Test CRC E34D5DE0
Copy CRC E34D5DE0
Accurately ripped (confidence 16) [CEC0E50C] (AR v2)
Copy OK

Track 4 Filename M:\_EAC\Frank Zappa - Strictly Genteel (1997) [FLAC] {Rykodisc RCD 10578}\04 - Outrage At Valdez.wav Peak level 89.1 %
Extraction speed 1.1 X
Track quality 99.9 %
Test CRC 0C8B7996
Copy CRC 0C8B7996
Accurately ripped (confidence 16) [CCE2A1D9] (AR v2)
Copy OK

Track 5 Filename M:\_EAC\Frank Zappa - Strictly Genteel (1997) [FLAC] {Rykodisc RCD 10578}\05 - Little Umbrellas.wav Peak level 76.4 %
Extraction speed 1.3 X
Track quality 100.0 %
Test CRC 01D95273
Copy CRC 01D95273
Accurately ripped (confidence 16) [59CA9FE5] (AR v2)
Copy OK

Track 6 Filename M:\_EAC\Frank Zappa - Strictly Genteel (1997) [FLAC] {Rykodisc RCD 10578}\06 - Run Home Slow Theme.wav Peak level 98.3 %
Extraction speed 1.1 X
Track quality 100.0 %
Test CRC FE495DD3
Copy CRC FE495DD3
Accurately ripped (confidence 16) [4D90CE45] (AR v2)
Copy OK

Track 7 Filename M:\_EAC\Frank Zappa - Strictly Genteel (1997) [FLAC] {Rykodisc RCD 10578}\07 - Dwarf Nebula Processional March & Dwarf Nebula.wav Peak level 98.7 %
Extraction speed 1.3 X
Track quality 100.0 %
Test CRC C4AEB14A
Copy CRC C4AEB14A
Accurately ripped (confidence 16) [78593BBE] (AR v2)
Copy OK

Track 8 Filename M:\_EAC\Frank Zappa - Strictly Genteel (1997) [FLAC] {Rykodisc RCD 10578}\08 - Dupree's Paradise.wav Peak level 100.0 %
Extraction speed 1.7 X
Track quality 100.0 %
Test CRC 3509495B
Copy CRC 3509495B
Accurately ripped (confidence 16) [1581D79D] (AR v2)
Copy OK

Track 9 Filename M:\_EAC\Frank Zappa - Strictly Genteel (1997) [FLAC] {Rykodisc RCD 10578}\09 - Opus 1, No.3, 2nd Movement, PRESTO.wav Peak level 38.3 %
Extraction speed 1.3 X
Track quality 100.0 %
Test CRC 6A6E5C92
Copy CRC 6A6E5C92
Accurately ripped (confidence 16) [E03453F4] (AR v2)
Copy OK

Track 10 Filename M:\_EAC\Frank Zappa - Strictly Genteel (1997) [FLAC] {Rykodisc RCD 10578}\10 - Duke Of Prunes.wav Peak level 100.0 %
Extraction speed 1.6 X
Track quality 100.0 %
Test CRC 07D08BA2
Copy CRC 07D08BA2
Accurately ripped (confidence 16) [EAC1F4E2] (AR v2)
Copy OK

Track 11 Filename M:\_EAC\Frank Zappa - Strictly Genteel (1997) [FLAC] {Rykodisc RCD 10578}\11 - Aybe Sea.wav Peak level 100.0 %
Extraction speed 1.5 X
Track quality 100.0 %
Test CRC 643F7EFD
Copy CRC 643F7EFD
Accurately ripped (confidence 16) [FE222231] (AR v2)
Copy OK

Track 12 Filename M:\_EAC\Frank Zappa - Strictly Genteel (1997) [FLAC] {Rykodisc RCD 10578}\12 - Naval Aviation In Art.wav Peak level 82.9 %
Extraction speed 1.3 X
Track quality 99.9 %
Test CRC F9C5316D
Copy CRC F9C5316D
Accurately ripped (confidence 16) [4B9C714A] (AR v2)
Copy OK

Track 13 Filename M:\_EAC\Frank Zappa - Strictly Genteel (1997) [FLAC] {Rykodisc RCD 10578}\13 - G-Spot Tornado.wav Peak level 100.0 %
Extraction speed 1.4 X
Track quality 99.9 %
Test CRC 86693972
Copy CRC 86693972
Accurately ripped (confidence 16) [EDE4EFCC] (AR v2)
Copy OK

Track 14 Filename M:\_EAC\Frank Zappa - Strictly Genteel (1997) [FLAC] {Rykodisc RCD 10578}\14 - Bob In Dacron, First Movement.wav Peak level 100.0 %
Extraction speed 1.9 X
Track quality 100.0 %
Test CRC 612C9E5C
Copy CRC 612C9E5C
Accurately ripped (confidence 16) [CB8EA6F3] (AR v2)
Copy OK

Track 15 Filename M:\_EAC\Frank Zappa - Strictly Genteel (1997) [FLAC] {Rykodisc RCD 10578}\15 - Opus 1, No.4, 2nd Movement, ALLEGRO.wav Peak level 37.4 %
Extraction speed 1.7 X
Track quality 100.0 %
Test CRC 119C0BF5
Copy CRC 119C0BF5
Accurately ripped (confidence 16) [85D97F5B] (AR v2)
Copy OK

Track 16 Filename M:\_EAC\Frank Zappa - Strictly Genteel (1997) [FLAC] {Rykodisc RCD 10578}\16 - Dog Breath Variations.wav Peak level 89.1 %
Extraction speed 1.6 X
Track quality 100.0 %
Test CRC 04099D8D
Copy CRC 04099D8D
Accurately ripped (confidence 15) [A1919C3C] (AR v2)
Copy OK

Track 17 Filename M:\_EAC\Frank Zappa - Strictly Genteel (1997) [FLAC] {Rykodisc RCD 10578}\17 - Uncle Meat.wav Peak level 89.1 %
Extraction speed 1.4 X
Track quality 99.9 %
Test CRC A4D28C6B
Copy CRC A4D28C6B
Accurately ripped (confidence 15) [DB2E3AB2] (AR v2)
Copy OK

Track 18 Filename M:\_EAC\Frank Zappa - Strictly Genteel (1997) [FLAC] {Rykodisc RCD 10578}\18 - Strictly Genteel.wav Peak level 100.0 %
Extraction speed 2.1 X
Track quality 100.0 %
Test CRC FC1DB826
Copy CRC FC1DB826
Accurately ripped (confidence 16) [9FCE783A] (AR v2)
Copy OK

All tracks accurately ripped

No errors occurred

End of status report

==== Log checksum AC7F086E0B7B889782C4390808A8864BEC56D76478B692B21BDC1EEA78806AD9 ====

http://i72.fastpic.ru/big/2015/0730/af/7f58c372a7cee0a00d60e210e321e0af.jpg

http://i69.fastpic.ru/big/2015/0730/f3/3f6e9593cf5fae23fd007c5ab66ae2f3.jpg


DOWNLOAD LINKS:
Buy Premium To Support Me & Get Resumable Support & Max Speed


Links are Interchangeable - No Password - Single Extraction



Ad2

 
 
 
Dear visitor, you went to the site as an unregistered user. We encourage you to register or enter the site under your name.
 
   
 
 (Votes #: 0)