2013Zone For Latest Downloads

 
     
 
Legal Downloads » Music » Pretty Boy Floyd - Kiss Of Death: A Tribute To Kiss (2010) [2015, Deadline Music CLP-2182-2]
Menu
Home Applications
Games Movies
Music TV Shows
Torrents Graphics

Sitemap

RSS
 
Advanced Search
Last News
Site Info
Top Contributors:
  1    supper88 32767
  2    admin 32756
  3    Whisky 10081
  4    Shark_ 8911
  5    creativelivenew 8706
  6    whathesupa 2799
  7    candymypost 840
  8    hvnteam 629
  9    vuong87 3


Articles:
  This Hour: 0
  Today: 0
  This Month: 14
  All Time: 515458


Torrents:
  Today: 0
  Yesterday: 0
  All Time: 156743


Membership:
  Registered Today :0
  This Hour:0
  This Month:0
  Total:14
  Banned:1

{online}
{inform_torrent}
Friend:
Full Download Scripts
Torrent Download
Trend
Trend

Search In Site

Music : Pretty Boy Floyd - Kiss Of Death: A Tribute To Kiss (2010) [2015, Deadline Music CLP-2182-2]
 
http://i71.fastpic.ru/big/2015/0808/ac/4912f8fe119f5aaf54ed67946057f1ac.jpg

Pretty Boy Floyd - Kiss Of Death: A Tribute To Kiss (2010)
EAC | Flac(Image) + Cue + Log & MP3 CBR 320Kbps
Deadline Music CLP-2182-2 | ~ 388 or 123 Mb | Scans Included
Hard Rock / Glam Metal

"The bad boys of Hollywood sleaze metal take on the gods of New York glam on this bombastic tribute album! Features supercharged versions of KISS classics Shout It Out Loud, Detroit Rock City, Strutter, I Love It Loud and more!"


Tracklist:

01. King of the Night Time World
02. Room Service
03. I Stole Your Love
04. I Love It Loud
05. Goin Blind
06. Deuce
07. Creatures of the Night
08. Detroit Rock City
09. Firehouse
10. Love Gun
11. Shout It Out Loud
12. Christine 16
13. Strutter
14. Let Me Go Rock n Roll
15. Black Diamond

Musicians:

Steve Summers - vocals
Kristy Majors - guitar
Criss 6 - bass
Vik Foxx - drums


Exact Audio Copy V1.0 beta 3 from 29. August 2011

EAC extraction logfile from 30. July 2015, 17:22

Pretty Boy Floyd / Kiss of Death - a Tribute to Kiss (Re-2015)

Used drive : PIONEER DVD-RW DVR-221L Adapter: 2 ID: 0

Read mode : Secure
Utilize accurate stream : Yes
Defeat audio cache : Yes
Make use of C2 pointers : No

Read offset correction

: 6
Overread into Lead-In and Lead-Out : No
Fill up missing offset samples with silence : Yes
Delete leading and trailing silent blocks : No
Null samples used in CRC calculations : Yes
Used interface
: Native Win32 interface for Win NT & 2000

Used output format : Internal WAV Routines
Sample format : 44.100 Hz; 16 Bit; Stereo

TOC of the extracted CD Track | Start | Length | Start sector | End sector
--1 | 0:00.00 | 3:04.34 | 0 | 13833 2 | 3:04.34 | 2:52.13 | 13834 | 26746 3 | 5:56.47 | 2:49.50 | 26747 | 39471 4 | 8:46.22 | 3:22.21 | 39472 | 54642 5 | 12:08.43 | 3:41.05 | 54643 | 71222 6 | 15:49.48 | 2:58.19 | 71223 | 84591 7 | 18:47.67 | 4:04.03 | 84592 | 102894 8 | 22:51.70 | 3:52.57 | 102895 | 120351 9 | 26:44.52 | 3:22.49 | 120352 | 135550
10 | 30:07.26 | 3:06.12 | 135551 | 149512
11 | 33:13.38 | 2:48.50 | 149513 | 162162
12 | 36:02.13 | 3:01.69 | 162163 | 175806
13 | 39:04.07 | 3:13.68 | 175807 | 190349
14 | 42:18.00 | 2:15.72 | 190350 | 200546
15 | 44:33.72 | 4:14.35 | 200547 | 219631

Range status and errors

Selected range Filename D:\Свои Рипы на Линия Жизни\Pretty Boy Floyd - Kiss of Death - a Tribute to Kiss (Re-2015).wav Peak level 100.0 %
Extraction speed 7.6 X
Range quality 100.0 %
Copy CRC A2B76277
Copy OK

No errors occurred


AccurateRip summary

Track 1 accurately ripped (confidence 1) 8389C3A (AR v2)
Track 2 accurately ripped (confidence 1) [CB0FF013] (AR v2)
Track 3 accurately ripped (confidence 1) [8A0B5A04] (AR v2)
Track 4 accurately ripped (confidence 1) [83AE7998] (AR v2)
Track 5 accurately ripped (confidence 1) [163DAA4B] (AR v2)
Track 6 accurately ripped (confidence 1) [3665FCB6] (AR v2)
Track 7 accurately ripped (confidence 1) [0EEB8094] (AR v2)
Track 8 accurately ripped (confidence 1) [76AA7429] (AR v2)
Track 9 accurately ripped (confidence 1) [6FE2C469] (AR v2)
Track 10 accurately ripped (confidence 1) [CDB9ECE2] (AR v2)
Track 11 accurately ripped (confidence 1) [F7F38936] (AR v2)
Track 12 accurately ripped (confidence 1) [4164A2B0] (AR v2)
Track 13 accurately ripped (confidence 1) [22CCE008] (AR v2)
Track 14 accurately ripped (confidence 1) [ABB49731] (AR v2)
Track 15 accurately ripped (confidence 1) 795C3D6 (AR v2)

All tracks accurately ripped

End of status report

==== Log checksum 2B0826598AF2840616B245C05C97257EC84DEE3B375712751A680681CB91F151 ====

foobar2000 1.2.9 / Dynamic Range Meter 1.1.1
log date: 2015-08-07 08:59:37

Analyzed: Pretty Boy Floyd / Kiss of Death - a Tribute to Kiss (Re-2015)

DR Peak RMS Duration Track

DR4 0.00 dB -5.60 dB 3:04 01-King of the Night Time World
DR4 0.00 dB -4.89 dB 2:52 02-Room Service
DR6 0.00 dB -6.62 dB 2:50 03-I Stole Your Love
DR5 0.00 dB -5.85 dB 3:22 04-I Love It Loud
DR5 0.00 dB -6.20 dB 3:41 05-Goin Blind
DR5 0.00 dB -6.21 dB 2:58 06-Deuce
DR6 0.00 dB -6.55 dB 4:04 07-Creatures of the Night
DR5 0.00 dB -6.60 dB 3:53 08-Detroit Rock City
DR5 0.00 dB -6.51 dB 3:23 09-Firehouse
DR5 0.00 dB -5.71 dB 3:06 10-Love Gun
DR4 0.00 dB -5.08 dB 2:49 11-Shout It Out Loud
DR5 0.00 dB -6.05 dB 3:02 12-Christine 16
DR3 0.00 dB -4.22 dB 3:14 13-Strutter
DR4 0.00 dB -5.67 dB 2:16 14-Let Me Go Rock n Roll
DR6 -0.04 dB -7.29 dB 4:14 15-Black Diamond

Number of tracks: 15
Official DR value: DR5

Samplerate: 44100 Hz
Channels: 2
Bits per sample: 16
Bitrate: 1058 kbps
Codec: FLAC

[CUETools log; Date: 07.08.2015 8:55:39; Version: 2.1.4]
[CTDB TOCID: .RsEUZP_1IfQFl7ZGy0mTki0iTk-] found.
Track | CTDB Status
1 | (2/2) Accurately ripped
2 | (2/2) Accurately ripped
3 | (2/2) Accurately ripped
4 | (2/2) Accurately ripped
5 | (2/2) Accurately ripped
6 | (2/2) Accurately ripped
7 | (2/2) Accurately ripped
8 | (2/2) Accurately ripped
9 | (2/2) Accurately ripped
10 | (2/2) Accurately ripped
11 | (2/2) Accurately ripped
12 | (2/2) Accurately ripped
13 | (2/2) Accurately ripped
14 | (2/2) Accurately ripped
15 | (2/2) Accurately ripped
[AccurateRip ID: 001aa979-012f6678-d60b700f] found.
Track [ CRC | V2 ] Status
01 [39ba8192|b8389c3a] (0+1/1) Accurately ripped
02 [f01cc18e|cb0ff013] (0+1/1) Accurately ripped
03 [2e5c4679|8a0b5a04] (0+1/1) Accurately ripped
04 [ae188774|83ae7998] (0+1/1) Accurately ripped
05 031fc30|163daa4b (0+1/1) Accurately ripped
06 [a524cfe6|3665fcb6] (0+1/1) Accurately ripped
07 [67fe130f|0eeb8094] (0+1/1) Accurately ripped
08 [e1ae353c|76aa7429] (0+1/1) Accurately ripped
09 [7dcf32b7|6fe2c469] (0+1/1) Accurately ripped
10 [17269a12|cdb9ece2] (0+1/1) Accurately ripped
11 [ca26322b|f7f38936] (0+1/1) Accurately ripped
12 [872e9ae5|4164a2b0] (0+1/1) Accurately ripped
13 [9cfdf402|22cce008] (0+1/1) Accurately ripped
14 [8339551e|abb49731] (0+1/1) Accurately ripped
15 [6942ad53|b795c3d6] (0+1/1) Accurately ripped

Track Peak [ CRC32 ] [W/O NULL] [ LOG ]
-- 100,0 [A2B76277] [EDE9E59C] CRC32
01 100,0 [72D5DC04] [33DC412D]
02 100,0 [78948B48] [470D5771]
03 100,0 [916AEE42] [55AE1A94]
04 100,0 [A141374E] [63CA4C43]
05 100,0 [F4267ADE] [038367D5]
06 100,0 [318F719C] [27587463]
07 100,0 [AB30675F] [8C8599E4]
08 100,0 [30392405] [7A7758BF]
09 100,0 [837A5BAC] [EF13D842]
10 100,0 978AD93 [693DB3A1]
11 100,0 [7B84B73D] [CEE05C45]
12 100,0 [4DCFD4D7] [04D72FB8]
13 100,0 [49718E23] [E183CAAE]
14 100,0 [71F2576A] [A4175707]
15 99,4 [C8AAD038] [1452199A]

http://i71.fastpic.ru/big/2015/0808/4f/c13664a86b585629ed0735556a97ac4f.jpg

DOWNLOAD LINKS:
Buy Premium To Support Me & Get Resumable Support & Max Speed


Links are Interchangeable - No Password - Single Extraction

Pretty Boy Floyd - Kiss Of Death: A Tribute To Kiss (2010) [2015, Deadline Music CLP-2182-2] Fast Download



 
 
 
Dear visitor, you went to the site as an unregistered user. We encourage you to register or enter the site under your name.
 
   
 
 (Votes #: 0)