2013Zone For Latest Downloads

 
     
 
Legal Downloads » Music » Jordi Savall & Le Concert Des Nations - Bach - Les Quatre Ouvertures (2012) [2CD] {Alia Vox}
Menu
Home Applications
Games Movies
Music TV Shows
Torrents Graphics

Sitemap

RSS
 
Advanced Search
Last News
Site Info
Top Contributors:
  1    supper88 32766
  2    admin 32671
  3    Whisky 10080
  4    Shark_ 8911
  5    creativelivenew 8706
  6    whathesupa 2799
  7    candymypost 840
  8    hvnteam 629
  9    vuong87 3


Articles:
  This Hour: 0
  Today: 0
  This Month: 40
  All Time: 515636


Torrents:
  Today: 0
  Yesterday: 0
  All Time: 156702


Membership:
  Registered Today :0
  This Hour:0
  This Month:0
  Total:14
  Banned:1

{online}
{inform_torrent}
Friend:
We Recomend
Trend
Trend

Search In Site

Music : Jordi Savall & Le Concert Des Nations - Bach - Les Quatre Ouvertures (2012) [2CD] {Alia Vox}
 

http://i69.fastpic.ru/big/2015/0811/64/733b665cebb2783d01deee1999621c64.jpg
Jordi Savall & Le Concert Des Nations - Bach - Les Quatre Ouvertures (2012) [2CD] {Alia Vox}
EAC rip (secure mode) | FLAC (tracks)+CUE+LOG -> 616 Mb | MP3 @320 -> 252 Mb
Full Artwork @ 600 dpi (jpg) -> 286 Mb | 5% repair rar
© 2012 Alia Vox | AVSA 9890
Classical / Orchestral

"There's very little to say about this recording save throwing yet more encomiums Jordi Savall's way: as with his other Bach recordings, this is a success. The warmly dark, coppery sound for which these forces are renowned is here in its full glory; Savall's pacing is neither frenzied nor laborious; the audio clarity is stunning. Because Savall is such a renowned gamba player who has recruited great fellow string players to his projects (note one Fabio Biondi on violin), you might overlook stellar playing elsewhere in the ensemble. But there's no way to ignore the wind section in the opening movement in the first suite: the exquisite phrasing and pitch-perfect tones demand to be heard (and heard repeatedly, at that), and the masterful playing becomes even more delightfully apparent in the extended oboe and bassoon solo in the same suite's Bourée."

http://i70.fastpic.ru/big/2015/0811/6b/8bdf6ec6fe0dfa2ded52452d02f6a16b.jpg

"The highly exposed, technically demanding flute line of Suite No. 2?s Badinerie seems an easy task in the hands of Marc Hantaï (whose last name links him to that family of admirable musicians-Pierre appears here as well, playing harpsichord). The seemingly effortless yet graceful power of the three trumpeters makes the first movement of the Fourth Suite an event in itself (see sound clip below). But the strings shine too; witness the ineffably tender performance of the Third Suite's famous Air. In a crowded field of fine interpretations (Koopman, Klemperer, etc.), this 1990 recording version is the standard bearer."


http://i71.fastpic.ru/big/2015/0811/6d/ca439c916fc353ea1c6127b6a1480f6d.jpg


More INFO

Personnel:
Jordi Savall - conductor
Le Concert des Nations - orchestra
Fabio Biondi - violin
Alfredo Bernardini & Paolo Grazzi - oboe
Josep Borràs - bassoon
Marc Hantaï - solo flute

tracklist:
CD1

01 - Ouverture (Suite) III en re majeur, BWV 1068- I. (Ouverture)
02 - Ouverture (Suite) III en re majeur, BWV 1068- II. Air
03 - Ouverture (Suite) III en re majeur, BWV 1068- III. Gavotte I - Gavotte II
04 - Ouverture (Suite) III en re majeur, BWV 1068- IV. Bouree
05 - Ouverture (Suite) III en re majeur, BWV 1068- V. Gigue
06 - Ouverture (Suite) I en ut majeur, BWV 1066- I. (Ouverture)
07 - Ouverture (Suite) I en ut majeur, BWV 1066- II. Courante
08 - Ouverture (Suite) I en ut majeur, BWV 1066- III. Gavotte I alternativement - Gavotte II
09 - Ouverture (Suite) I en ut majeur, BWV 1066- IV. Forlane
10 - Ouverture (Suite) I en ut majeur, BWV 1066- V. Menuett I alternativement - Menuett II
11 - Ouverture (Suite) I en ut majeur, BWV 1066- VI. Bouree I alternativement - Bouree II
12 - Ouverture (Suite) I en ut majeur, BWV 1066- VII. Passepied I - Passepied II

http://i72.fastpic.ru/big/2015/0811/07/7cba13cd45d306f5cf881f6315788507.jpg


CD2
01 - Ouverture (Suite) II en si mineur, BWV 1067- I. (Ouverture)
02 - Ouverture (Suite) II en si mineur, BWV 1067- II. Rondeau
03 - Ouverture (Suite) II en si mineur, BWV 1067- III. Sarabande
04 - Ouverture (Suite) II en si mineur, BWV 1067- IV. Bouree I alternativement - Bouree II
05 - Ouverture (Suite) II en si mineur, BWV 1067- V. Polonaise - Double
06 - Ouverture (Suite) II en si mineur, BWV 1067- VI. Menuett
07 - Ouverture (Suite) II en si mineur, BWV 1067- VII. Badinerie
08 - Ouverture (Suite) IV en re majeur, BWV 1069- I. (Ouverture)
09 - Ouverture (Suite) IV en re majeur, BWV 1069- II. Bouree I - Bouree II
10 - Ouverture (Suite) IV en re majeur, BWV 1069- III. Gavotte
11 - Ouverture (Suite) IV en re majeur, BWV 1069- IV. Menuett I alternativement - Menuett II
12 - Ouverture (Suite) IV en re majeur, BWV 1069- V. Rejouissance

Exact Audio Copy V1.0 beta 3 from 29. August 2011

EAC extraction logfile from 13. August 2014, 13:03

Johann Sebastian Bach / Les Quatre Ouvertures: Suites pour orchestre, BWV 1066-1069

Used drive : Optiarc DVD RW AD-5280S Adapter: 2 ID: 1

Read mode : Secure
Utilize accurate stream : Yes
Defeat audio cache : Yes
Make use of C2 pointers : No

Read offset correction

: 48
Overread into Lead-In and Lead-Out : No
Fill up missing offset samples with silence : Yes
Delete leading and trailing silent blocks : No
Null samples used in CRC calculations : Yes
Used interface
: Native Win32 interface for Win NT & 2000
Gap handling
: Appended to previous track

Used output format : User Defined Encoder
Selected bitrate : 768 kBit/s
Quality : High
Add ID3 tag : No
Command line compressor : C:\Program Files\Exact Audio Copy\FLAC\FLAC.EXE
Additional command line options : -8 -V -T "ARTIST=%artist%" -T "TITLE=%title%" -T "ALBUM=%albumtitle%" -T "DATE=%year%" -T "TRACKNUMBER=%tracknr%" -T "TOTALTRACKS=%numtracks%" -T "GENRE=%genre%" -T "ALBUMARTIST=%albumartist%" -T "ALBUM ARTIST=%albumartist%" -T "COMMENT=EAC Secure Mode, Test & Copy, AccurateRip, FLAC -8" %source%

TOC of the extracted CD Track | Start | Length | Start sector | End sector
--1 | 0:00.00 | 11:42.51 | 0 | 52700 2 | 11:42.51 | 6:01.64 | 52701 | 79839 3 | 17:44.40 | 4:31.18 | 79840 | 100182 4 | 22:15.58 | 1:17.10 | 100183 | 105967 5 | 23:32.68 | 2:51.15 | 105968 | 118807 6 | 26:24.08 | 10:44.60 | 118808 | 167167 7 | 37:08.68 | 2:17.52 | 167168 | 177494 8 | 39:26.45 | 3:23.10 | 177495 | 192729 9 | 42:49.55 | 1:30.04 | 192730 | 199483
10 | 44:19.59 | 3:34.73 | 199484 | 215606
11 | 47:54.57 | 2:39.40 | 215607 | 227571
12 | 50:34.22 | 3:19.57 | 227572 | 242553

Track 1 Filename F:\Johann Sebastian Bach - Les Quatre Ouvertures (Le Concert des Nations, Savall) (2012) [FLAC] {Alia Vox AVSA 9890}\Disc 1of2\01 - Ouverture (Suite) III en re majeur, BWV 1068- I. (Ouverture).wav Pre-gap length 0:00:02.00 Peak level 96.5 %
Extraction speed 3.1 X
Track quality 100.0 %
Test CRC 6769ABDF
Copy CRC 6769ABDF
Accurately ripped (confidence 18) [F0234EAC] (AR v2)
Copy OK

Track 2 Filename F:\Johann Sebastian Bach - Les Quatre Ouvertures (Le Concert des Nations, Savall) (2012) [FLAC] {Alia Vox AVSA 9890}\Disc 1of2\02 - Ouverture (Suite) III en re majeur, BWV 1068- II. Air.wav Pre-gap length 0:00:03.31 Peak level 57.2 %
Extraction speed 3.2 X
Track quality 99.9 %
Test CRC BC57E74E
Copy CRC BC57E74E
Accurately ripped (confidence 18) [22746B76] (AR v2)
Copy OK

Track 3 Filename F:\Johann Sebastian Bach - Les Quatre Ouvertures (Le Concert des Nations, Savall) (2012) [FLAC] {Alia Vox AVSA 9890}\Disc 1of2\03 - Ouverture (Suite) III en re majeur, BWV 1068- III. Gavotte I - Gavotte II.wav Pre-gap length 0:00:03.30 Peak level 95.2 %
Extraction speed 3.3 X
Track quality 99.9 %
Test CRC 6478FCD7
Copy CRC 6478FCD7
Accurately ripped (confidence 18) [9B842A35] (AR v2)
Copy OK

Track 4 Filename F:\Johann Sebastian Bach - Les Quatre Ouvertures (Le Concert des Nations, Savall) (2012) [FLAC] {Alia Vox AVSA 9890}\Disc 1of2\04 - Ouverture (Suite) III en re majeur, BWV 1068- IV. Bouree.wav Peak level 83.9 %
Extraction speed 2.9 X
Track quality 100.0 %
Test CRC 079820DD
Copy CRC 079820DD
Accurately ripped (confidence 18) [381E0A65] (AR v2)
Copy OK

Track 5 Filename F:\Johann Sebastian Bach - Les Quatre Ouvertures (Le Concert des Nations, Savall) (2012) [FLAC] {Alia Vox AVSA 9890}\Disc 1of2\05 - Ouverture (Suite) III en re majeur, BWV 1068- V. Gigue.wav Peak level 94.6 %
Extraction speed 3.6 X
Track quality 100.0 %
Test CRC FA9DC887
Copy CRC FA9DC887
Accurately ripped (confidence 18) [DCDDE0C4] (AR v2)
Copy OK

Track 6 Filename F:\Johann Sebastian Bach - Les Quatre Ouvertures (Le Concert des Nations, Savall) (2012) [FLAC] {Alia Vox AVSA 9890}\Disc 1of2\06 - Ouverture (Suite) I en ut majeur, BWV 1066- I. (Ouverture).wav Pre-gap length 0:00:09.53 Peak level 69.2 %
Extraction speed 4.5 X
Track quality 100.0 %
Test CRC 24BD797A
Copy CRC 24BD797A
Accurately ripped (confidence 18) [119C44D9] (AR v2)
Copy OK

Track 7 Filename F:\Johann Sebastian Bach - Les Quatre Ouvertures (Le Concert des Nations, Savall) (2012) [FLAC] {Alia Vox AVSA 9890}\Disc 1of2\07 - Ouverture (Suite) I en ut majeur, BWV 1066- II. Courante.wav Pre-gap length 0:00:02.60 Peak level 57.3 %
Extraction speed 4.0 X
Track quality 100.0 %
Test CRC 052E7129
Copy CRC 052E7129
Accurately ripped (confidence 18) A6D81AD (AR v2)
Copy OK

Track 8 Filename F:\Johann Sebastian Bach - Les Quatre Ouvertures (Le Concert des Nations, Savall) (2012) [FLAC] {Alia Vox AVSA 9890}\Disc 1of2\08 - Ouverture (Suite) I en ut majeur, BWV 1066- III. Gavotte I alternativement - Gavotte II.wav Peak level 56.6 %
Extraction speed 4.4 X
Track quality 100.0 %
Test CRC 297B7339
Copy CRC 297B7339
Accurately ripped (confidence 18) [6C7CF5CC] (AR v2)
Copy OK

Track 9 Filename F:\Johann Sebastian Bach - Les Quatre Ouvertures (Le Concert des Nations, Savall) (2012) [FLAC] {Alia Vox AVSA 9890}\Disc 1of2\09 - Ouverture (Suite) I en ut majeur, BWV 1066- IV. Forlane.wav Peak level 57.8 %
Extraction speed 3.7 X
Track quality 100.0 %
Test CRC 620524DA
Copy CRC 620524DA
Accurately ripped (confidence 18) [F7764307] (AR v2)
Copy OK

Track 10 Filename F:\Johann Sebastian Bach - Les Quatre Ouvertures (Le Concert des Nations, Savall) (2012) [FLAC] {Alia Vox AVSA 9890}\Disc 1of2\10 - Ouverture (Suite) I en ut majeur, BWV 1066- V. Menuett I alternativement - Menuett II.wav Peak level 54.4 %
Extraction speed 4.6 X
Track quality 100.0 %
Test CRC 6096FEB4
Copy CRC 6096FEB4
Accurately ripped (confidence 18) [86A5F52F] (AR v2)
Copy OK

Track 11 Filename F:\Johann Sebastian Bach - Les Quatre Ouvertures (Le Concert des Nations, Savall) (2012) [FLAC] {Alia Vox AVSA 9890}\Disc 1of2\11 - Ouverture (Suite) I en ut majeur, BWV 1066- VI. Bouree I alternativement - Bouree II.wav Peak level 62.5 %
Extraction speed 4.5 X
Track quality 100.0 %
Test CRC 448620A3
Copy CRC 448620A3
Accurately ripped (confidence 18) AA133A4 (AR v2)
Copy OK

Track 12 Filename F:\Johann Sebastian Bach - Les Quatre Ouvertures (Le Concert des Nations, Savall) (2012) [FLAC] {Alia Vox AVSA 9890}\Disc 1of2\12 - Ouverture (Suite) I en ut majeur, BWV 1066- VII. Passepied I - Passepied II.wav Pre-gap length 0:00:01.39 Peak level 64.7 %
Extraction speed 4.7 X
Track quality 100.0 %
Test CRC BC6579EC
Copy CRC BC6579EC
Accurately ripped (confidence 18) [2DF9D8C6] (AR v2)
Copy OK

All tracks accurately ripped

No errors occurred

End of status report

==== Log checksum E495D48192772C4A5AC987CC045CDAFA10785F29A62C23B2CF3727515345B5E6 ====

Exact Audio Copy V1.0 beta 3 from 29. August 2011

EAC extraction logfile from 13. August 2014, 13:41

Johann Sebastian Bach / Les Quatre Ouvertures: Suites pour orchestre, BWV 1066-1069

Used drive : Optiarc DVD RW AD-5280S Adapter: 2 ID: 1

Read mode : Secure
Utilize accurate stream : Yes
Defeat audio cache : Yes
Make use of C2 pointers : No

Read offset correction

: 48
Overread into Lead-In and Lead-Out : No
Fill up missing offset samples with silence : Yes
Delete leading and trailing silent blocks : No
Null samples used in CRC calculations : Yes
Used interface
: Native Win32 interface for Win NT & 2000
Gap handling
: Appended to previous track

Used output format : User Defined Encoder
Selected bitrate : 768 kBit/s
Quality : High
Add ID3 tag : No
Command line compressor : C:\Program Files\Exact Audio Copy\FLAC\FLAC.EXE
Additional command line options : -8 -V -T "ARTIST=%artist%" -T "TITLE=%title%" -T "ALBUM=%albumtitle%" -T "DATE=%year%" -T "TRACKNUMBER=%tracknr%" -T "TOTALTRACKS=%numtracks%" -T "GENRE=%genre%" -T "ALBUMARTIST=%albumartist%" -T "ALBUM ARTIST=%albumartist%" -T "COMMENT=EAC Secure Mode, Test & Copy, AccurateRip, FLAC -8" %source%

TOC of the extracted CD Track | Start | Length | Start sector | End sector
--1 | 0:00.00 | 11:36.06 | 0 | 52205 2 | 11:36.06 | 2:10.63 | 52206 | 62018 3 | 13:46.69 | 3:35.28 | 62019 | 78171 4 | 17:22.22 | 2:10.15 | 78172 | 87936 5 | 19:32.37 | 4:08.07 | 87937 | 106543 6 | 23:40.44 | 1:26.12 | 106544 | 113005 7 | 25:06.56 | 1:41.29 | 113006 | 120609 8 | 26:48.10 | 12:41.51 | 120610 | 177735 9 | 39:29.61 | 2:55.18 | 177736 | 190878
10 | 42:25.04 | 1:46.37 | 190879 | 198865
11 | 44:11.41 | 4:41.12 | 198866 | 219952
12 | 48:52.53 | 2:37.70 | 219953 | 231797

Track 1 Filename F:\Johann Sebastian Bach - Les Quatre Ouvertures (Le Concert des Nations, Savall) (2012) [FLAC] {Alia Vox AVSA 9890}\Disc 2of2\01 - Ouverture (Suite) II en si mineur, BWV 1067- I. (Ouverture).wav Pre-gap length 0:00:02.00 Peak level 69.4 %
Extraction speed 3.1 X
Track quality 100.0 %
Test CRC B98FCBDE
Copy CRC B98FCBDE
Accurately ripped (confidence 18) [D732B59A] (AR v2)
Copy OK

Track 2 Filename F:\Johann Sebastian Bach - Les Quatre Ouvertures (Le Concert des Nations, Savall) (2012) [FLAC] {Alia Vox AVSA 9890}\Disc 2of2\02 - Ouverture (Suite) II en si mineur, BWV 1067- II. Rondeau.wav Pre-gap length 0:00:01.13 Peak level 49.9 %
Extraction speed 2.9 X
Track quality 100.0 %
Test CRC B1AD8E7E
Copy CRC B1AD8E7E
Accurately ripped (confidence 18) [7F43C8BC] (AR v2)
Copy OK

Track 3 Filename F:\Johann Sebastian Bach - Les Quatre Ouvertures (Le Concert des Nations, Savall) (2012) [FLAC] {Alia Vox AVSA 9890}\Disc 2of2\03 - Ouverture (Suite) II en si mineur, BWV 1067- III. Sarabande.wav Pre-gap length 0:00:01.41 Peak level 41.3 %
Extraction speed 3.3 X
Track quality 100.0 %
Test CRC C247FA8C
Copy CRC C247FA8C
Accurately ripped (confidence 18) [47A0E0D5] (AR v2)
Copy OK

Track 4 Filename F:\Johann Sebastian Bach - Les Quatre Ouvertures (Le Concert des Nations, Savall) (2012) [FLAC] {Alia Vox AVSA 9890}\Disc 2of2\04 - Ouverture (Suite) II en si mineur, BWV 1067- IV. Bouree I alternativement - Bouree II.wav Pre-gap length 0:00:02.33 Peak level 52.8 %
Extraction speed 3.2 X
Track quality 100.0 %
Test CRC 16816082
Copy CRC 16816082
Accurately ripped (confidence 18) [00F3449F] (AR v2)
Copy OK

Track 5 Filename F:\Johann Sebastian Bach - Les Quatre Ouvertures (Le Concert des Nations, Savall) (2012) [FLAC] {Alia Vox AVSA 9890}\Disc 2of2\05 - Ouverture (Suite) II en si mineur, BWV 1067- V. Polonaise - Double.wav Pre-gap length 0:00:01.11 Peak level 50.3 %
Extraction speed 3.7 X
Track quality 100.0 %
Test CRC 6CF41F11
Copy CRC 6CF41F11
Accurately ripped (confidence 18) [3AB3CD1D] (AR v2)
Copy OK

Track 6 Filename F:\Johann Sebastian Bach - Les Quatre Ouvertures (Le Concert des Nations, Savall) (2012) [FLAC] {Alia Vox AVSA 9890}\Disc 2of2\06 - Ouverture (Suite) II en si mineur, BWV 1067- VI. Menuett.wav Peak level 43.8 %
Extraction speed 3.1 X
Track quality 100.0 %
Test CRC D489B10D
Copy CRC D489B10D
Accurately ripped (confidence 18) [74D3E979] (AR v2)
Copy OK

Track 7 Filename F:\Johann Sebastian Bach - Les Quatre Ouvertures (Le Concert des Nations, Savall) (2012) [FLAC] {Alia Vox AVSA 9890}\Disc 2of2\07 - Ouverture (Suite) II en si mineur, BWV 1067- VII. Badinerie.wav Peak level 43.4 %
Extraction speed 3.3 X
Track quality 100.0 %
Test CRC 46DA1119
Copy CRC 46DA1119
Accurately ripped (confidence 18) [411FBC8E] (AR v2)
Copy OK

Track 8 Filename F:\Johann Sebastian Bach - Les Quatre Ouvertures (Le Concert des Nations, Savall) (2012) [FLAC] {Alia Vox AVSA 9890}\Disc 2of2\08 - Ouverture (Suite) IV en re majeur, BWV 1069- I. (Ouverture).wav Pre-gap length 0:00:12.62 Peak level 93.9 %
Extraction speed 4.6 X
Track quality 100.0 %
Test CRC C39E1459
Copy CRC C39E1459
Accurately ripped (confidence 18) [F9131DC8] (AR v2)
Copy OK

Track 9 Filename F:\Johann Sebastian Bach - Les Quatre Ouvertures (Le Concert des Nations, Savall) (2012) [FLAC] {Alia Vox AVSA 9890}\Disc 2of2\09 - Ouverture (Suite) IV en re majeur, BWV 1069- II. Bouree I - Bouree II.wav Pre-gap length 0:00:01.40 Peak level 92.0 %
Extraction speed 4.3 X
Track quality 100.0 %
Test CRC B3DA63DD
Copy CRC B3DA63DD
Accurately ripped (confidence 18) [A95D0F75] (AR v2)
Copy OK

Track 10 Filename F:\Johann Sebastian Bach - Les Quatre Ouvertures (Le Concert des Nations, Savall) (2012) [FLAC] {Alia Vox AVSA 9890}\Disc 2of2\10 - Ouverture (Suite) IV en re majeur, BWV 1069- III. Gavotte.wav Peak level 83.5 %
Extraction speed 4.0 X
Track quality 100.0 %
Test CRC 35FF1769
Copy CRC 35FF1769
Accurately ripped (confidence 18) [9B9AF654] (AR v2)
Copy OK

Track 11 Filename F:\Johann Sebastian Bach - Les Quatre Ouvertures (Le Concert des Nations, Savall) (2012) [FLAC] {Alia Vox AVSA 9890}\Disc 2of2\11 - Ouverture (Suite) IV en re majeur, BWV 1069- IV. Menuett I alternativement - Menuett II.wav Pre-gap length 0:00:02.58 Peak level 54.1 %
Extraction speed 4.3 X
Track quality 99.9 %
Test CRC 6DB00C52
Copy CRC 6DB00C52
Accurately ripped (confidence 18) [217CE276] (AR v2)
Copy OK

Track 12 Filename F:\Johann Sebastian Bach - Les Quatre Ouvertures (Le Concert des Nations, Savall) (2012) [FLAC] {Alia Vox AVSA 9890}\Disc 2of2\12 - Ouverture (Suite) IV en re majeur, BWV 1069- V. Rejouissance.wav Pre-gap length 0:00:02.25 Peak level 92.3 %
Extraction speed 4.5 X
Track quality 100.0 %
Test CRC BB47E471
Copy CRC BB47E471
Accurately ripped (confidence 18) [79885E34] (AR v2)
Copy OK

All tracks accurately ripped

No errors occurred

End of status report

==== Log checksum A4892152FEA0CA9E9712DC38917C84B1881925B47BDCCBE37DB6C59F1DE4DF6B ====

http://i70.fastpic.ru/big/2015/0811/3b/1d08e99aaca01937d6866f2b6dd6193b.jpg

http://i69.fastpic.ru/big/2015/0811/e7/227fd6bd779d03ff47e9b4d79bf097e7.jpg

http://i71.fastpic.ru/big/2015/0811/3d/61d09e607e4e7cbfe81e143ccfcdd83d.jpg


All thanks goes to the original releaser!
DOWNLOAD LINKS:
Buy Premium To Support Me & Get Resumable Support & Max Speed


Links are Interchangeable - No Password - Single Extraction

 
 
 
Dear visitor, you went to the site as an unregistered user. We encourage you to register or enter the site under your name.
 
   
 
 (Votes #: 0)