2013Zone For Latest Downloads

 
     
 
Legal Downloads » Music » The Cult - High Octane Cult (1996) [Warner Music Japan, WPCR-828]
Menu
Home Applications
Games Movies
Music TV Shows
Torrents Graphics

Sitemap

RSS
 
Advanced Search
Last News
Site Info
Top Contributors:
  1    supper88 32766
  2    admin 32756
  3    Whisky 10080
  4    Shark_ 8911
  5    creativelivenew 8706
  6    whathesupa 2799
  7    candymypost 840
  8    hvnteam 629
  9    vuong87 3


Articles:
  This Hour: 0
  Today: 0
  This Month: 0
  All Time: 515486


Torrents:
  Today: 0
  Yesterday: 0
  All Time: 156739


Membership:
  Registered Today :0
  This Hour:0
  This Month:0
  Total:14
  Banned:1

{online}
{inform_torrent}
Friend:
Full Download Scripts
Torrent Download
Trend
Trend

Search In Site

Music : The Cult - High Octane Cult (1996) [Warner Music Japan, WPCR-828]
 
http://i72.fastpic.ru/big/2015/0811/6c/c875835a3e82915f5501d7a180d0676c.jpg

The Cult - High Octane Cult (1996)
EAC | Flac(Image) + Cue + Log & MP3 CBR 320Kbps
Warner Music Japan, WPCR-828 | ~ 532 or 174 Mb | Scans(600dpi, jpg) -> 71 Mb
Hard Rock

"With the exception of two previously unreleased new songs, "In the Clouds" and "Beauty's on the Street," plus a couple of tweaks here and there, High Octane Cult is virtually identical to the previously import-only collection, Pure Cult, (released in 1993 and re-released stateside in 2000 with a slightly altered track listing). The only difference being that H.O.C..."


Tracklist:

01. In The Clouds (4:00)
02. She Sells Sanctuary (4:13)
03. Fire Woman (5:13)
04. Lil' Devil (2:46)
05. Spiritwalker (3:50)
06. The Witch (4:19)
07. Revolution (4:16)
08. Coming Down (4:01)
09. Love Removal Machine (4:18)
10. Rain (3:57)
11. Edie (Ciao Baby) (4:02)
12. Heart Of Soul (4:31)
13. Star (4:00)
14. Wild Flower (3:36)
15. Resurrection Joe (4:16)
16. Wild Hearted Son (4:25)
17. Sweet Soul Sister (3:29)
18. Beauty's On The Street (4:42)

Exact Audio Copy V0.99 prebeta 5 from 4. May 2009

Archivo Log de extracciones desde 25. Mayo 2012, 14:04

The Cult / High Octane Cult - Japan (WPCR-828)

Usar unidad : HL-DT-STDVDRAM GH22NS70 Adapter: 0 ID: 0

Modo de Lectura : Seguro
Utilizar Corriente Exacta : Sн
Descartar Audio cachй : Sн
Utilizar los punteros C2 : No

Correcciуn de Desplazamiento de Lectura : 667
Sobreleer tanto en Lead-In como en Lead-Out : No
Rellenar las muestras faltantes con silencios : Sн
Eliminar silencios inicial y final : No
Se han usado muestras nulas en los cбlculos CRC : Sн
Interfaz usada
: Interfaz propio de Win32 para Windowns NT y 2000

Formato de Salida utilizado : Compresor sin pйrdida Monkey's Audio
Bitrate seleccionado

: High Lossless Compression
Calidad
: Alta
Aсadir Etiqueta ID3

: Sн
Compresor de linea de comandos : C:\Program Files (x86)\Exact Audio Copy\MAC.exe

TOC del CD extraido Pista | Inicio | Duraciуn | Sector inicial | Sector final
1 | 0:00.00 | 4:00.32 | 0 | 18031 2 | 4:00.32 | 4:12.73 | 18032 | 37004 3 | 8:13.30 | 5:12.45 | 37005 | 60449 4 | 13:26.00 | 2:45.55 | 60450 | 72879 5 | 16:11.55 | 3:50.05 | 72880 | 90134 6 | 20:01.60 | 4:18.52 | 90135 | 109536 7 | 24:20.37 | 4:16.05 | 109537 | 128741 8 | 28:36.42 | 4:00.68 | 128742 | 146809 9 | 32:37.35 | 4:17.40 | 146810 | 166124
10 | 36:55.00 | 3:56.45 | 166125 | 183869
11 | 40:51.45 | 4:01.42 | 183870 | 201986
12 | 44:53.12 | 4:31.03 | 201987 | 222314
13 | 49:24.15 | 4:00.12 | 222315 | 240326
14 | 53:24.27 | 3:36.05 | 240327 | 256531
15 | 57:00.32 | 4:15.43 | 256532 | 275699
16 | 61:16.00 | 4:24.70 | 275700 | 295569
17 | 65:40.70 | 3:29.00 | 295570 | 311244
18 | 69:09.70 | 4:42.00 | 311245 | 332394

Gama de estados y errores

Seleccionar gama Nombre de Archivo E:\Mъsica\EAC\The Cult\The Cult - High Octane Cult - Japan (WPCR-828).wav Nivel Pico 98.7 %
Gama de Calidad 100.0 %
Test CRC 943C074D
Copiar CRC 943C074D
Copia OK

Sin Errores


Resumen AccurateRip

Pista 1 no presente en la base de datos
Pista 2 no presente en la base de datos
Pista 3 no presente en la base de datos
Pista 4 no presente en la base de datos
Pista 5 no presente en la base de datos
Pista 6 no presente en la base de datos
Pista 7 no presente en la base de datos
Pista 8 no presente en la base de datos
Pista 9 no presente en la base de datos
Pista 10 no presente en la base de datos
Pista 11 no presente en la base de datos
Pista 12 no presente en la base de datos
Pista 13 no presente en la base de datos
Pista 14 no presente en la base de datos
Pista 15 no presente en la base de datos
Pista 16 no presente en la base de datos
Pista 17 no presente en la base de datos
Pista 18 no presente en la base de datos

Ninguna de las pistas estб presente en la base de datos AccurateRip

Final del Informe

foobar2000 1.2.9 / Dynamic Range Meter 1.1.1
log date: 2015-08-08 09:45:21

Analyzed: The Cult / High Octane Cult (Japan)

DR Peak RMS Duration Track

DR7 -0.11 dB -9.21 dB 4:00 01-In The Clouds
DR10 -0.20 dB -11.62 dB 4:13 02-She Sells Sanctuary
DR10 -0.20 dB -11.29 dB 5:13 03-Fire Woman
DR11 -0.20 dB -12.09 dB 2:46 04-Lil' Devil
DR8 -0.20 dB -10.76 dB 3:50 05-Spiritwalker
DR8 -0.20 dB -9.29 dB 4:19 06-The Witch
DR9 -0.20 dB -11.24 dB 4:16 07-Revolution
DR7 -0.20 dB -8.31 dB 4:01 08-Coming Down
DR9 -0.20 dB -10.97 dB 4:18 09-Love Removal Machine
DR9 -0.20 dB -10.69 dB 3:57 10-Rain
DR9 -0.20 dB -11.88 dB 4:02 11-Edie (Ciao Baby)
DR7 -0.20 dB -9.31 dB 4:31 12-Heart Of Soul
DR8 -0.20 dB -9.45 dB 4:00 13-Star
DR9 -0.20 dB -11.06 dB 3:36 14-Wild Flower
DR8 -0.20 dB -10.13 dB 4:16 15-Resurrection Joe
DR8 -0.20 dB -9.30 dB 4:25 16-Wild Hearted Son
DR8 -0.20 dB -10.53 dB 3:29 17-Sweet Soul Sister
DR9 -0.20 dB -10.73 dB 4:42 18-Beauty's On The Street

Number of tracks: 18
Official DR value: DR9

Samplerate: 44100 Hz
Channels: 2
Bits per sample: 16
Bitrate: 978 kbps
Codec: FLAC

[CUETools log; Date: 08.08.2015 9:40:46; Version: 2.1.4]
[CTDB TOCID: m8yQpgcEqrNWMwNYVJS0THqCXcc-] found.
Track | CTDB Status
1 | (1/1) Accurately ripped
2 | (1/1) Accurately ripped
3 | (1/1) Accurately ripped
4 | (1/1) Accurately ripped
5 | (1/1) Accurately ripped
6 | (1/1) Accurately ripped
7 | (1/1) Accurately ripped
8 | (1/1) Accurately ripped
9 | (1/1) Accurately ripped
10 | (1/1) Accurately ripped
11 | (1/1) Accurately ripped
12 | (1/1) Accurately ripped
13 | (1/1) Accurately ripped
14 | (1/1) Accurately ripped
15 | (1/1) Accurately ripped
16 | (1/1) Accurately ripped
17 | (1/1) Accurately ripped
18 | (1/1) Accurately ripped
[AccurateRip ID: 00300f59-02808185-0e114f12] found.
Track [ CRC | V2 ] Status
01 [785494f3|fe1ce62b] (0+1/1) Accurately ripped
02 [5d874717|d0b9b921] (0+1/1) Accurately ripped
03 [c5157f08|f7b7900d] (0+1/1) Accurately ripped
04 [9dd01194|76782320] (0+1/1) Accurately ripped
05 [400d31aa|fb7de4f4] (0+1/1) Accurately ripped
06 [a3dd886a|6e51a5b6] (0+1/1) Accurately ripped
07 [120d1034|c4f83ecd] (0+1/1) Accurately ripped
08 [7b2ddb2f|d70c8ddc] (0+1/1) Accurately ripped
09 [c4da3578|37aa1076] (0+1/1) Accurately ripped
10 [d8909bb4|0c401802] (0+1/1) Accurately ripped
11 [d1710538|3b58c869] (0+1/1) Accurately ripped
12 [4190ee4d|196aa9f8] (0+1/1) Accurately ripped
13 [89d19f38|91a209d5] (0+1/1) Accurately ripped
14 [7068d7ce|40d1a68d] (0+1/1) Accurately ripped
15 1e6839d|8303e659 (0+1/1) Accurately ripped
16 [c5b1a3f6|00efd2fc] (0+1/1) Accurately ripped
17 [e212661e|2fee33d1] (0+1/1) Accurately ripped
18 [19310527|a21c2c68] (0+1/1) Accurately ripped

Track Peak [ CRC32 ] [W/O NULL]
-- 98,7 [943C074D] [CDFB6F7E]
01 98,7 [7B36EA12] [A4E73D1F]
02 97,7 [6C68312E] [AAE0C1C0]
03 97,7 [745DEE6A] [7DF9C0CF]
04 97,7 [3419EBD5] [9559B3C5]
05 97,7 [9E1CE395] [316E4B70]
06 97,7 8EF5162 [05B2F395]
07 97,7 [DF54EC37] [92DD2620]
08 97,7 [620ABF63] [75846EAC]
09 97,7 [1888084B] [69CCD0A8]
10 97,7 [7F5B260C] [EBAF7D0B]
11 97,7 [485498C8] [829230F9]
12 97,7 [70AD2A15] [E24B970F]
13 97,7 [F71998CF] [A02A1A7B]
14 97,7 [E6BB7D9D] [A4A9131A]
15 97,7 [C1D941EF] 194513B
16 97,7 [77DB95BE] [191D4977]
17 97,7 [330F3F11] [7452403E]
18 97,7 [6BB94F8E] [ECB209D2]

http://i70.fastpic.ru/big/2015/0811/84/a14ac7e439b62567ef9e1d70fae24584.jpg

All thanks go to jarpomarx

Download The Cult - High Octane Cult (1996):


DOWNLOAD LINKS:
Buy Premium To Support Me & Get Resumable Support & Max Speed


Links are Interchangeable - No Password - Single Extraction

The Cult - High Octane Cult (1996) [Warner Music Japan, WPCR-828] Fast Download



 
 
 
Dear visitor, you went to the site as an unregistered user. We encourage you to register or enter the site under your name.
 
   
 
 (Votes #: 0)