2013Zone For Latest Downloads

 
     
 
Legal Downloads » Music » Miles Davis - Workin' With The Miles Davis Quintet (1956) {2006 Prestige RVG Remasters Series}
Menu
Home Applications
Games Movies
Music TV Shows
Torrents Graphics

Sitemap

RSS
 
Advanced Search
Last News
Site Info
Top Contributors:
  1    supper88 32766
  2    admin 32660
  3    Whisky 10080
  4    Shark_ 8911
  5    creativelivenew 8706
  6    whathesupa 2799
  7    candymypost 840
  8    hvnteam 629
  9    vuong87 3


Articles:
  This Hour: 0
  Today: 0
  This Month: 14
  All Time: 515665


Torrents:
  Today: 0
  Yesterday: 0
  All Time: 156699


Membership:
  Registered Today :0
  This Hour:0
  This Month:0
  Total:14
  Banned:1

{online}
{inform_torrent}
Friend:
We Recomend
Trend
Trend
onlinemovies

Search In Site

Music : Miles Davis - Workin' With The Miles Davis Quintet (1956) {2006 Prestige RVG Remasters Series}
 

http://i69.fastpic.ru/big/2015/0816/81/6cc5a362eb2d478ca674486246033d81.jpg
Miles Davis - Workin' With The Miles Davis Quintet (1956) {2006 Prestige RVG Remasters Series}
EAC rip (secure mode) | FLAC (tracks)+CUE+LOG -> 270 Mb | MP3 @320 -> 100 Mb
Full Artwork @ 600 dpi (png) -> 186 Mb | 5% repair rar
© 2006 Concord / Prestige | 0888072300804 | Prestige RVG Remasters Series | 24-bit remaster
Jazz / Bop / Hard Bop / Trumpet

""I was the engineer on the recording sessions and I also made the masters for the original LP issues of these albums. Since the advent of the CD, other people have been making the masters. Mastering is the final step in the process of creating the sound of the finished product. Now, thanks to the folks at the Concord Music Group who have given me the opportunity to remaster these albums, I can present my versions of the music on CD using modern technology. I remember the sessions well, I remember how the musicians wanted to sound, and I remember their reactions to the playbacks. Today, I feel strongly that I am their messenger." -Rudy Van Gelder"

http://i69.fastpic.ru/big/2015/0816/9d/28f26e69299eb464da54de0f25e8439d.jpg

"Undeniably one of the best small bands in the history of jazz, the Miles Davis quintet of the mid-1950s made history at the Cafe Bohemia on Manhattan's Barrow Street and in the New Jersey studio of Rudy Van Gelder for Prestige. This is the third in a series of four LPs taped in two marathon studio sessions, done in the style of sets at the Bohemia and producing music of high energy and immediacy.

Preceded by Cookin' and Relaxin' , Workin' is a mix of standards and originals, up-tempos and ballads, and a trio number, "Ahmad's Blues." The music this quintet made in the mid-Fifties period will live forever: the excitement of the emerging John Coltrane; the informed, melodic swing of Red Garland; the tremendous snap and pop of the rhythm trio of Garland, Paul Chambers, and Philly Joe Jones; and Miles's poignancy and intense swing."


Personnel:
Miles Davis - trumpet
John Coltrane - tenor saxophone
Red Garland - piano
Paul Chambers - bass
Philly Joe Jones - drums

tracklist:
01 - It Never Entered My Mind
02 - Four
03 - In Your Own Sweet Way
04 - The Theme (Take 1)
05 - Trane's Blues
06 - Ahmad's Blues
07 - Half Nelson
08 - The Theme (Take 2)

Exact Audio Copy V1.1 from 23. June 2015

EAC extraction logfile from 10. August 2015, 12:40

Miles Davis / Workin' With The Miles Davis Quintet

Used drive : TSSTcorpCDDVDW SE-208DB Adapter: 7 ID: 0

Read mode : Secure
Utilize accurate stream : Yes
Defeat audio cache : Yes
Make use of C2 pointers : No

Read offset correction

: 6
Overread into Lead-In and Lead-Out : No
Fill up missing offset samples with silence : Yes
Delete leading and trailing silent blocks : No
Null samples used in CRC calculations : Yes
Used interface
: Installed external ASPI interface
Gap handling
: Appended to previous track

Used output format : User Defined Encoder
Selected bitrate : 1024 kBit/s
Quality : High
Add ID3 tag : No
Command line compressor : C:\Program Files (x86)\FLAC Frontend\tools\flac.exe
Additional command line options : -8 -V -T "ARTIST=%artist%" -T "TITLE=%title%" -T "ALBUM=%albumtitle%" -T "DATE=%year%" -T "TRACKNUMBER=%tracknr%" -T "TOTALTRACKS=%numtracks%" -T "GENRE=%genre%" -T "ALBUMARTIST=%albumartist%" -T "ALBUM ARTIST=%albumartist%" -T "COMMENT=EAC Secure Mode, Test & Copy, AccurateRip, FLAC -8" %source%

TOC of the extracted CD Track | Start | Length | Start sector | End sector
--1 | 0:00.00 | 5:26.03 | 0 | 24452 2 | 5:26.03 | 7:15.59 | 24453 | 57136 3 | 12:41.62 | 5:45.51 | 57137 | 83062 4 | 18:27.38 | 2:01.64 | 83063 | 92201 5 | 20:29.27 | 8:35.73 | 92202 | 130899 6 | 29:05.25 | 7:27.43 | 130900 | 164467 7 | 36:32.68 | 4:47.63 | 164468 | 186055 8 | 41:20.56 | 1:04.21 | 186056 | 190876

Track 1 Filename M:\_EAC\Miles Davis - Workin' With The Miles Davis Quintet (1956) [FLAC] {2006 Prestige RVG Remasters Series}\01 - It Never Entered My Mind.wav Pre-gap length 0:00:02.00 Peak level 92.5 %
Extraction speed 1.1 X
Track quality 100.0 %
Test CRC 839A7BA1
Copy CRC 839A7BA1
Accurately ripped (confidence 29) [166F7E4B] (AR v2)
Copy OK

Track 2 Filename M:\_EAC\Miles Davis - Workin' With The Miles Davis Quintet (1956) [FLAC] {2006 Prestige RVG Remasters Series}\02 - Four.wav Pre-gap length 0:00:02.64 Peak level 97.9 %
Extraction speed 1.3 X
Track quality 100.0 %
Test CRC 5AA762C8
Copy CRC 5AA762C8
Accurately ripped (confidence 29) [0A314447] (AR v2)
Copy OK

Track 3 Filename M:\_EAC\Miles Davis - Workin' With The Miles Davis Quintet (1956) [FLAC] {2006 Prestige RVG Remasters Series}\03 - In Your Own Sweet Way.wav Pre-gap length 0:00:02.51 Peak level 90.6 %
Extraction speed 1.4 X
Track quality 100.0 %
Test CRC A5E04DEA
Copy CRC A5E04DEA
Accurately ripped (confidence 29) [E4031407] (AR v2)
Copy OK

Track 4 Filename M:\_EAC\Miles Davis - Workin' With The Miles Davis Quintet (1956) [FLAC] {2006 Prestige RVG Remasters Series}\04 - The Theme (Take 1).wav Pre-gap length 0:00:02.63 Peak level 93.3 %
Extraction speed 0.9 X
Track quality 99.9 %
Test CRC 542CD3E4
Copy CRC 542CD3E4
Accurately ripped (confidence 29) [711360C8] (AR v2)
Copy OK

Track 5 Filename M:\_EAC\Miles Davis - Workin' With The Miles Davis Quintet (1956) [FLAC] {2006 Prestige RVG Remasters Series}\05 - Trane's Blues.wav Pre-gap length 0:00:03.53 Peak level 88.4 %
Extraction speed 1.6 X
Track quality 100.0 %
Test CRC 9D82372B
Copy CRC 9D82372B
Accurately ripped (confidence 29) [AF904DAD] (AR v2)
Copy OK

Track 6 Filename M:\_EAC\Miles Davis - Workin' With The Miles Davis Quintet (1956) [FLAC] {2006 Prestige RVG Remasters Series}\06 - Ahmad's Blues.wav Pre-gap length 0:00:03.62 Peak level 97.9 %
Extraction speed 1.7 X
Track quality 100.0 %
Test CRC 1AAFE3C5
Copy CRC 1AAFE3C5
Accurately ripped (confidence 29) [3A8240CA] (AR v2)
Copy OK

Track 7 Filename M:\_EAC\Miles Davis - Workin' With The Miles Davis Quintet (1956) [FLAC] {2006 Prestige RVG Remasters Series}\07 - Half Nelson.wav Pre-gap length 0:00:03.26 Peak level 96.5 %
Extraction speed 1.5 X
Track quality 99.9 %
Test CRC D0BCFBBB
Copy CRC D0BCFBBB
Accurately ripped (confidence 29) [EB07E56C] (AR v2)
Copy OK

Track 8 Filename M:\_EAC\Miles Davis - Workin' With The Miles Davis Quintet (1956) [FLAC] {2006 Prestige RVG Remasters Series}\08 - The Theme (Take 2).wav Pre-gap length 0:00:02.60 Peak level 89.6 %
Extraction speed 1.1 X
Track quality 100.0 %
Test CRC BFE93860
Copy CRC BFE93860
Accurately ripped (confidence 29) [A7245026] (AR v2)
Copy OK

All tracks accurately ripped

No errors occurred

End of status report

==== Log checksum C9A6E31F33566575C6AFC080F5191D48B916084659C58BBD018114E20310E58B ====

http://i70.fastpic.ru/big/2015/0816/25/abc058e886eb9e6234205681b1580e25.jpg

http://i70.fastpic.ru/big/2015/0816/20/a0bd6b8619cc6b8e40918554183ae820.jpg






NEXT -> More Prestige RVG Remasters.......
DOWNLOAD LINKS:
Buy Premium To Support Me & Get Resumable Support & Max Speed


Links are Interchangeable - No Password - Single Extraction

 
 
 
Dear visitor, you went to the site as an unregistered user. We encourage you to register or enter the site under your name.
 
   
 
 (Votes #: 0)