2013Zone For Latest Downloads

 
     
 
Legal Downloads » Music » Frantisek Benda - Konrad Hünteler - Concertos for Flute, Strings and Basso Continuo (1996, MDG "Gold" # 311 0702-2) [RE-UP]
Menu
Home Applications
Games Movies
Music TV Shows
Torrents Graphics

Sitemap

RSS
 
Advanced Search
Last News
Site Info
Top Contributors:
  1    supper88 32767
  2    admin 32756
  3    Whisky 10081
  4    Shark_ 8911
  5    creativelivenew 8706
  6    whathesupa 2799
  7    candymypost 840
  8    hvnteam 629
  9    vuong87 3


Articles:
  This Hour: 0
  Today: 0
  This Month: 14
  All Time: 515457


Torrents:
  Today: 0
  Yesterday: 0
  All Time: 156743


Membership:
  Registered Today :0
  This Hour:0
  This Month:0
  Total:14
  Banned:1

{online}
{inform_torrent}
Friend:
Full Download Scripts
Torrent Download
Trend
Trend

Search In Site

Music : Frantisek Benda - Konrad Hünteler - Concertos for Flute, Strings and Basso Continuo (1996, MDG "Gold" # 311 0702-2) [RE-UP]
 

http://i71.fastpic.ru/big/2015/0822/0f/9aa08debe4c0d2e49af504e34b15370f.jpg
Frantisek Benda - Concertos for Flute, Strings and Basso Continuo
Konrad Hünteler / Camerata of the 18th Century
EAC+LOG+CUE | FLAC: 264 MB | NO Artwork | 5% Recovery Info
Label/Cat#: MDG "Gold" # 311 0702-2 | Country/Year: Germany 1996
Genre: Classical | Style: Viennese School, Flute

""Hünteler is playing a Jakob Denner Flute, one of only four to survive, and which was discovered in 1991 in the attic of a house near Nuremberg, where it had lain undisturbed for almost three centuries. And indeed Hünteler elicits beautiful sounds from the instrument." ~Fanfare"



http://i67.fastpic.ru/big/2015/0822/e4/c35af568ede1267d04268dd2018771e4.jpg



Exact Audio Copy V1.0 beta 3 from 29. August 2011

EAC extraction logfile from 23. April 2013, 9:50

Camerata of the 18th century, Hünteler / Benda: Concertos for Flute, Strings and B.c.

Used drive : PIONEER BD-RW BDR-206 Adapter: 0 ID: 2

Read mode : Secure
Utilize accurate stream : Yes
Defeat audio cache : Yes
Make use of C2 pointers : No

Read offset correction

: 667
Overread into Lead-In and Lead-Out : No
Fill up missing offset samples with silence : Yes
Delete leading and trailing silent blocks : No
Null samples used in CRC calculations : Yes
Used interface
: Native Win32 interface for Win NT & 2000

Used output format : User Defined Encoder
Selected bitrate : 1024 kBit/s
Quality : High
Add ID3 tag : Yes
Command line compressor : C:\Program Files\FLAC\flac.exe
Additional command line options : -5 -T "Artist=%artist%" -T "Title=%title%" -T "Album=%albumtitle%" -T "Date=%year%" -T "Tracknumber=%tracknr%" -T "Genre=%genre%" %source% -o %dest%

TOC of the extracted CD Track | Start | Length | Start sector | End sector
--1 | 0:00.00 | 7:09.02 | 0 | 32176 2 | 7:09.02 | 6:00.50 | 32177 | 59226 3 | 13:09.52 | 5:10.53 | 59227 | 82529 4 | 18:20.30 | 7:14.40 | 82530 | 115119 5 | 25:34.70 | 7:37.27 | 115120 | 149421 6 | 33:12.22 | 4:48.00 | 149422 | 171021 7 | 38:00.22 | 5:33.60 | 171022 | 196056 8 | 43:34.07 | 6:51.63 | 196057 | 226944 9 | 50:25.70 | 4:29.65 | 226945 | 247184

Range status and errors

Selected range Filename F:\=== VINYL RIPS ===\=== EAC===\X FRESH RIP\Benda- Hünteler - Concertos for Flute, Strings and B.c..wav Peak level 88.2 %
Extraction speed 7.1 X
Range quality 99.9 %
Copy CRC ADF8D30C
Copy OK

No errors occurred


AccurateRip summary

Track 1 accurately ripped (confidence 3) [83EB98FE] (AR v2)
Track 2 accurately ripped (confidence 3) [AD7E512A] (AR v2)
Track 3 accurately ripped (confidence 3) [7728EB21] (AR v2)
Track 4 accurately ripped (confidence 3) [1954E666] (AR v2)
Track 5 accurately ripped (confidence 2) [97F6D4E6] (AR v2)
Track 6 accurately ripped (confidence 3) [CB4A9537] (AR v2)
Track 7 accurately ripped (confidence 3) [DEC9A641] (AR v2)
Track 8 accurately ripped (confidence 3) [CF1CBEEE] (AR v2)
Track 9 accurately ripped (confidence 3) [4057E8E1] (AR v2)

All tracks accurately ripped

End of status report

- CUETools DB Plugin V2.1.3

[CTDB TOCID: GiiVNQc1ax6zAJeaXqaD0UGgRZU-] disk not present in database, Submit result: GiiVNQc1ax6zAJeaXqaD0UGgRZU- has been uploaded

==== Log checksum B1A2895358A1FCD3810522458F25AE4FEAEAFBF78F53CD8655E6E1BF5C0085F9 ====

foobar2000 1.1.14a / Dynamic Range Meter 1.1.1
log date: 2013-04-23 17:48:00

Analyzed: Camerata of the 18th century, Hünteler / Benda: Concertos for Flute, Strings and B.c.

DR Peak RMS Duration Track

DR13 -2.05 dB -18.22 dB 7:09 01-Concerto in E minor - Allegro con brio
DR13 -1.62 dB -20.69 dB 6:01 02-Concerto in E minor - .Adagion, un poco Andante
DR14 -1.09 dB -19.20 dB 5:11 03-Concerto in E minor - Presto
DR13 -3.21 dB -19.37 dB 7:15 04-Concerto in G major - Allegro
DR13 -2.06 dB -20.54 dB 7:37 05-Concerto in G major - Largo
DR13 -3.78 dB -20.48 dB 4:48 06-Concerto in G major - Presto
DR13 -4.36 dB -21.06 dB 5:34 07-Concerto in A major - Allegretto
DR14 -4.66 dB -22.65 dB 6:52 08-Concerto in A major - Adagio
DR13 -3.70 dB -21.33 dB 4:30 09-Concerto in A major - Vivace ma non troppo Presto

Number of tracks: 9
Official DR value: DR13

Samplerate: 44100 Hz
Channels: 2
Bits per sample: 16
Bitrate: 629 kbps
Codec: FLAC

CD Info:

Frantisek Benda - Concertos for Flute, Strings and Basso Continuo

Konrad Hünteler / Camerata of the 18th Century

Label: MDG
Series: Gold
Catalog#: 311 0702-2
Format: CD, Album
Country: Germany
Released: 1996
Genre: Classical
Style: Viennese School, Flute

Tracklist:

1 Concerto in E minor - Allegro con brio 7:09
2 Concerto in E minor - Adagion, un poco Andante 6:01
3 Concerto in E minor - Presto 5:11
4 Concerto in G major - Allegro 7:15
5 Concerto in G major - Largo 7:37
6 Concerto in G major - Presto 4:48
7 Concerto in A major - Allegretto 5:34
8 Concerto in A major - Adagio 6:52
9 Concerto in A major - Vivace ma non troppo Presto 4:30

"„Erfreuliche und geschmackvolle Wiedergabe... mit Aplomb gespielt." (Concerto) „ ein feuriger Leckerbissen, nicht nur für Freunde der frühklassischen Bläsermusik!" „herausragende Interpretation" (FonoForum) „Reizvolle Beispiele des Übergangs vom Barock zur Klassik. ... Töne von berückender Schönheit." (Stereoplay)

"Hünteler is playing a Jakob Denner Flute, one of only four to survive, and which was discovered in 1991 in the attic of a house near Nuremberg, where it had lain undisturbed for almost three centuries. And indeed Hünteler elicits beautiful sounds from the instrument." (Fanfare)"


Composer:

Johann Sebastian Bach

Woldemar Bargiel

Ludwig van Beethoven

Johannes Brahms

Marcel Dupre

Johann Nepomuk Hummel

Ottorino Respighi

Franz Schubert

Robert Schumann

Performer:

BeethovenQuartet

Ben van Oosten

Consortium Classicum

Musica Alta Ripa

Trio Parnassus
DOWNLOAD LINKS:
Buy Premium To Support Me & Get Resumable Support & Max Speed


Links are Interchangeable - No Password - Single Extraction

Frantisek Benda - Konrad Hünteler - Concertos for Flute, Strings and Basso Continuo (1996, MDG "Gold" # 311 0702-2) [RE-UP] Fast Download



 
 
 
Dear visitor, you went to the site as an unregistered user. We encourage you to register or enter the site under your name.
 
   
 
 (Votes #: 0)