2013Zone For Latest Downloads

 
     
 
Legal Downloads » Music » Focus - Mother Focus (1975) (K2HD)
Menu
Home Applications
Games Movies
Music TV Shows
Torrents Graphics

Sitemap

RSS
 
Advanced Search
Last News
Site Info
Top Contributors:
  1    supper88 32766
  2    admin 32752
  3    Whisky 10080
  4    Shark_ 8911
  5    creativelivenew 8706
  6    whathesupa 2799
  7    candymypost 840
  8    hvnteam 629
  9    vuong87 3


Articles:
  This Hour: 0
  Today: 0
  This Month: 16
  All Time: 515440


Torrents:
  Today: 0
  Yesterday: 0
  All Time: 156715


Membership:
  Registered Today :0
  This Hour:0
  This Month:0
  Total:14
  Banned:1

{online}
{inform_torrent}
Friend:
Full Download Scripts
Torrent Download
Trend
Trend

Search In Site

Music : Focus - Mother Focus (1975) (K2HD)
 
http://i68.fastpic.ru/big/2015/0824/96/101f33acf7dbf9afee308c5409218a96.jpg

Focus - Mother Focus (1975) (K2HD)
Rock | 1cd | EAC Rip | Flac + Cue + Log | covers
Victor, VICP-63668 | rem: 2006 | 260Mb

Focus here featured virtuoso guitarist Jan Akkerman for the last time, not to work with his long-term writing partner Thijs Van Leer for another ten years. Mother Focus also sees Focus' highly skilled bass player Bert Ruiter try his hand in songwriting. The outcome includes the one of the finest funk tracks on the album -- the hilarious "I Need a Bathroom." The album begins with quite possibly the finest track on the album -- and maybe the most typical Focus -- the titular "Mother Focus." The funky theme underlying the number sets the mood for the rest of the LP with aplomb. Indeed, Mother Focus is far from the usual instrumental material.
For this reason, Mother Focus may not appeal to the usual fans of the Dutch proggers. The number of feel-good tunes making up the album's core makes up for the lack of a rocking single in the style of "Hocus Pocus." A mellower, happier aura permeates the recording as a whole, particularly noticeable in the soothing "Tropic Bird." Undoubtedly, though, Mother Focus is let down by the lack of Akkerman's and Thijs' presence. The whole album cries out for one of them to jump out and take center stage for a while. Instead each track is filled with numerous melodies and rhythms, with only the occasional jaunt from Akkerman. Mother Focus is a fine album in its own right, but maybe not what one would be expecting when taking into account the progressive rock features of their earlier albums. Funk predominates in the last respectable Focus LP. RIP Focus. ~Allmusic

Track listing
01. Mother Focus (3:05)
02. I Need A Bathroom (3:06)
03. Bennie Helder (3:33)
04. Soft Vanilla (3:03)
05. Hard Vanilla (2:36)
06. Tropic Bird (2:44)
07. Focus IV (3:59)
08. Someone's Crying... What! (3:20)
09. All Together... Oh That! (3:42)
10. No Hang Ups (2:57)
11. My Sweetheart (3:37)
12. Father Bach (1:34)
~ (37:15)

EAC extraction logfile from 18. October 2007, 20:49 for CD
Focus / Mother Focus

Used drive : ATAPI-CDROM-DRIVE-50MAX Adapter: 1 ID: 1
Read mode : Secure with NO C2, accurate stream, disable cache
Read offset correction : 12
Overread into Lead-In and Lead-Out : No

Used output format : Internal WAV Routines 44.100 Hz; 16 Bit; Stereo

Other options :
Fill up missing offset samples with silence : Yes
Delete leading and trailing silent blocks : No
Installed external ASPI interface

Range status and errors
Selected range
Filename I:\HQ_\Mother.Focus.wav Peak level 98.8 %
Range quality 100.0 %
CRC B6A19AD1
Copy OK

No errors occured

End of status report

[CUETools log; Date: 2015.08.22. 23:03:25; Version: 2.1.5]
[CTDB TOCID: okjv4JdB5vbYLRi2Lb1wIbOI_KQ-] found.
Track | CTDB Status
1 | (8/8) Accurately ripped
2 | (8/8) Accurately ripped
3 | (8/8) Accurately ripped
4 | (8/8) Accurately ripped
5 | (8/8) Accurately ripped
6 | (8/8) Accurately ripped
7 | (8/8) Accurately ripped
8 | (8/8) Accurately ripped
9 | (8/8) Accurately ripped
10 | (8/8) Accurately ripped
11 | (8/8) Accurately ripped
12 | (8/8) Accurately ripped
[AccurateRip ID: 0010f2eb-009e789c-ae08ba0c] found.
Track [ CRC | V2 ] Status
01 [3bc1bbb9|185b9059] (03+07/10) Accurately ripped
02 [fbff6326|1731c5ba] (03+07/10) Accurately ripped
03 [17c46069|782ff296] (03+07/10) Accurately ripped
04 [401ef47e|a88e0fcf] (03+07/10) Accurately ripped
05 [dc8bd334|ed263af2] (03+07/10) Accurately ripped
06 [99e2c64f|467cdb81] (03+07/10) Accurately ripped
07 [ceee6952|bb9b822c] (03+07/10) Accurately ripped
08 [4cb5cec7|a148fbe3] (03+07/10) Accurately ripped
09 [8f39a8dc|49e65a3d] (03+07/10) Accurately ripped
10 [977d1912|2827752b] (03+07/10) Accurately ripped
11 [64722053|955d608e] (03+07/10) Accurately ripped
12 [15e48eb4|ea0f63df] (03+07/10) Accurately ripped
Offsetted by -18:
01 [9ef8ef9b] (00/10) No match (V2 was not tested)
02 [f41dca6a] (00/10) No match (V2 was not tested)
03 [8b7cac33] (00/10) No match (V2 was not tested)
04 [2a9ed389] (00/10) No match (V2 was not tested)
05 93ef87b (00/10) No match (V2 was not tested)
06 [2c6b4225] (00/10) No match (V2 was not tested)
07 [3afdc5a8] (00/10) No match (V2 was not tested)
08 059008f (00/10) No match (V2 was not tested)
09 [2493cfa4] (00/10) No match (V2 was not tested)
10 [cc3784da] (00/10) No match (V2 was not tested)
11 [a772f117] (00/10) No match (V2 was not tested)
12 [edab8a24] (00/10) No match (V2 was not tested)

Track Peak [ CRC32 ] [W/O NULL] [ LOG ]
-- 98,8 6A19AD1 [C931F597] CRC32
01 98,8 [D55A8EE7] D4E32E9
02 98,8 [A30AC1F1] [43A12BC6]
03 98,8 4986303 [8876C949]
04 98,8 [0E9BF74B] [C36CB4A3]
05 98,8 [D8F6B87B] [D31B2306]
06 98,5 [60593B12] [6C54E867]
07 98,8 [909DF3E7] 3AAD81D
08 98,5 [9652167A] [4C5E76D7]
09 98,8 [57BD2636] [73CE95E2]
10 98,8 0AAAD06 [187F4CC7]
11 98,8 [C8DCC63B] [63298575]
12 98,8 [49C1A3CD] [D9D351FC]

original uploader unknown, found in my archive
DOWNLOAD LINKS:
Buy Premium To Support Me & Get Resumable Support & Max Speed


Links are Interchangeable - No Password - Single Extraction

Focus - Mother Focus (1975) (K2HD) Fast Download



 
 
 
Dear visitor, you went to the site as an unregistered user. We encourage you to register or enter the site under your name.
 
   
 
 (Votes #: 0)