2013Zone For Latest Downloads

 
     
 
Legal Downloads » Music » The Australian Jazz Quartet - The Australian Jazz Quartet/Quintet (1956) {2014 Japan Bethlehem Album Collection 1000}
Menu
Home Applications
Games Movies
Music TV Shows
Torrents Graphics

Sitemap

RSS
 
Advanced Search
Last News
Site Info
Top Contributors:
  1    supper88 32766
  2    admin 32761
  3    Whisky 10080
  4    Shark_ 8911
  5    creativelivenew 8706
  6    whathesupa 2799
  7    candymypost 840
  8    hvnteam 629
  9    vuong87 3


Articles:
  This Hour: 0
  Today: 0
  This Month: 0
  All Time: 515455


Torrents:
  Today: 0
  Yesterday: 0
  All Time: 156739


Membership:
  Registered Today :0
  This Hour:0
  This Month:0
  Total:14
  Banned:1

{online}
{inform_torrent}
Friend:
Full Download Scripts
Torrent Download
Trend
Trend

Search In Site

Music : The Australian Jazz Quartet - The Australian Jazz Quartet/Quintet (1956) {2014 Japan Bethlehem Album Collection 1000}
 

http://i65.fastpic.ru/big/2015/0826/c3/50985e7267fdc53525b2c491ad0997c3.jpg
The Australian Jazz Quartet - The Australian Jazz Quartet/Quintet (1956) {2014 Japan Bethlehem Album Collection 1000}
EAC rip (secure mode) | FLAC (tracks)+CUE+LOG -> 172 Mb | MP3 @320 -> 92 Mb
Full Artwork @ 600 dpi (png) -> 218 Mb | 5% repair rar
© 2014 Solid Records / Bethlehem | CDSOL-6140 | LP BCP-6002
Jazz / Cool / Vibes / Flute

"Forget the hokey kangaroo picture on the cover, because the record's a mighty sweet set of 50s modern jazz - played by some key musicians from Australian who were working in the US at the time! The record's got a style that's somewhere between the hippest sessions of LA and Sweden at the time - all the coolness of both scenes, but a sense of playful expression that really comes through on some of the more unusual passages. The core group features Errol Buddle and Dick Healey on reeds, Bryce Rhode on piano, and Jack Brokensha on vibes - with added work from John Fawcett or Jimmy Gannon on bass, and Nick Stabulas on drums. Titles include "Loose Walk", "Like Someone In Love", "Music For Walkin", "Fascinating Rhythm", "A Foggy Day", and "Little Girl Blue"."

http://i70.fastpic.ru/big/2015/0826/ca/7e6811cb4acbfd4d9ce796a21b3315ca.jpg


Personnel:
Dick Healey - flute, alto, clarinet, bass
Errol Buddle - tenor, basoon
Bryce Rohde - piano
Jack Brokensha - vibes, drums

Assisting Artists for these Recordings:
Jimmy Gannon - bass
Nick Stabulas - drums
John Fawcett - bass

http://i65.fastpic.ru/big/2015/0826/ab/4bbf5fbe0010d035e95ae85ddc60fbab.jpg


tracklist:
01 - A Foggy Day
02 - Broadway
03 - Little Girl Blue
04 - September Song
05 - Loose Walk
06 - The Girl With The Flaxen Hair
07 - You Are Too Beautiful
08 - Music For Walkin'
09 - Lullaby Of The Leaves
10 - Like Someone In Love
11 - The Thing We Did Last Summer
12 - Fascinating Rhythm

Exact Audio Copy V1.1 from 23. June 2015

EAC extraction logfile from 24. August 2015, 2:25

The Australian Jazz Quartet/Quintet / The Australian Jazz Quartet/Quintet

Used drive : TSSTcorpCDDVDW SE-208DB Adapter: 7 ID: 0

Read mode : Secure
Utilize accurate stream : Yes
Defeat audio cache : Yes
Make use of C2 pointers : No

Read offset correction

: 6
Overread into Lead-In and Lead-Out : No
Fill up missing offset samples with silence : Yes
Delete leading and trailing silent blocks : No
Null samples used in CRC calculations : Yes
Used interface
: Installed external ASPI interface
Gap handling
: Appended to previous track

Used output format : User Defined Encoder
Selected bitrate : 1024 kBit/s
Quality : High
Add ID3 tag : No
Command line compressor : C:\Program Files (x86)\FLAC Frontend\tools\flac.exe
Additional command line options : -8 -V -T "ARTIST=%artist%" -T "TITLE=%title%" -T "ALBUM=%albumtitle%" -T "DATE=%year%" -T "TRACKNUMBER=%tracknr%" -T "TOTALTRACKS=%numtracks%" -T "GENRE=%genre%" -T "ALBUMARTIST=%albumartist%" -T "ALBUM ARTIST=%albumartist%" -T "COMMENT=EAC Secure Mode, Test & Copy, AccurateRip, FLAC -8" %source%

TOC of the extracted CD Track | Start | Length | Start sector | End sector
--1 | 0:00.00 | 2:39.41 | 0 | 11965 2 | 2:39.41 | 3:14.20 | 11966 | 26535 3 | 5:53.61 | 3:26.25 | 26536 | 42010 4 | 9:20.11 | 4:07.37 | 42011 | 60572 5 | 13:27.48 | 3:06.31 | 60573 | 74553 6 | 16:34.04 | 2:04.10 | 74554 | 83863 7 | 18:38.14 | 2:58.71 | 83864 | 97284 8 | 21:37.10 | 2:53.45 | 97285 | 110304 9 | 24:30.55 | 4:48.70 | 110305 | 131974
10 | 29:19.50 | 2:51.18 | 131975 | 144817
11 | 32:10.68 | 3:08.36 | 144818 | 158953
12 | 35:19.29 | 3:43.43 | 158954 | 175721

Track 1 Filename M:\_EAC\The Australian Jazz Quartet-Quintet - The Australian Jazz Quartet-Quintet (1956) [FLAC] {2014 Japan Bethlehem}\01 - A Foggy Day.wav Pre-gap length 0:00:02.00 Peak level 98.2 %
Extraction speed 0.9 X
Track quality 100.0 %
Test CRC E2E1517F
Copy CRC E2E1517F
Track not present in AccurateRip database
Copy OK

Track 2 Filename M:\_EAC\The Australian Jazz Quartet-Quintet - The Australian Jazz Quartet-Quintet (1956) [FLAC] {2014 Japan Bethlehem}\02 - Broadway.wav Peak level 98.2 %
Extraction speed 1.0 X
Track quality 100.0 %
Test CRC E5D4C858
Copy CRC E5D4C858
Track not present in AccurateRip database
Copy OK

Track 3 Filename M:\_EAC\The Australian Jazz Quartet-Quintet - The Australian Jazz Quartet-Quintet (1956) [FLAC] {2014 Japan Bethlehem}\03 - Little Girl Blue.wav Peak level 98.2 %
Extraction speed 1.1 X
Track quality 100.0 %
Test CRC 224BC5AD
Copy CRC 224BC5AD
Track not present in AccurateRip database
Copy OK

Track 4 Filename M:\_EAC\The Australian Jazz Quartet-Quintet - The Australian Jazz Quartet-Quintet (1956) [FLAC] {2014 Japan Bethlehem}\04 - September Song.wav Peak level 98.2 %
Extraction speed 1.2 X
Track quality 100.0 %
Test CRC E52E01DB
Copy CRC E52E01DB
Track not present in AccurateRip database
Copy OK

Track 5 Filename M:\_EAC\The Australian Jazz Quartet-Quintet - The Australian Jazz Quartet-Quintet (1956) [FLAC] {2014 Japan Bethlehem}\05 - Loose Walk.wav Peak level 98.2 %
Extraction speed 1.2 X
Track quality 100.0 %
Test CRC 12AB901F
Copy CRC 12AB901F
Track not present in AccurateRip database
Copy OK

Track 6 Filename M:\_EAC\The Australian Jazz Quartet-Quintet - The Australian Jazz Quartet-Quintet (1956) [FLAC] {2014 Japan Bethlehem}\06 - The Girl With The Flaxen Hair.wav Peak level 91.7 %
Extraction speed 0.9 X
Track quality 99.9 %
Test CRC 7E78E4B0
Copy CRC 7E78E4B0
Track not present in AccurateRip database
Copy OK

Track 7 Filename M:\_EAC\The Australian Jazz Quartet-Quintet - The Australian Jazz Quartet-Quintet (1956) [FLAC] {2014 Japan Bethlehem}\07 - You Are Too Beautiful.wav Peak level 98.2 %
Extraction speed 1.1 X
Track quality 99.9 %
Test CRC 9CDFE0CC
Copy CRC 9CDFE0CC
Track not present in AccurateRip database
Copy OK

Track 8 Filename M:\_EAC\The Australian Jazz Quartet-Quintet - The Australian Jazz Quartet-Quintet (1956) [FLAC] {2014 Japan Bethlehem}\08 - Music For Walkin'.wav Peak level 98.2 %
Extraction speed 1.1 X
Track quality 99.9 %
Test CRC 04BEC9D4
Copy CRC 04BEC9D4
Track not present in AccurateRip database
Copy OK

Track 9 Filename M:\_EAC\The Australian Jazz Quartet-Quintet - The Australian Jazz Quartet-Quintet (1956) [FLAC] {2014 Japan Bethlehem}\09 - Lullaby Of The Leaves.wav Peak level 98.2 %
Extraction speed 1.5 X
Track quality 100.0 %
Test CRC 5A63AB85
Copy CRC 5A63AB85
Track not present in AccurateRip database
Copy OK

Track 10 Filename M:\_EAC\The Australian Jazz Quartet-Quintet - The Australian Jazz Quartet-Quintet (1956) [FLAC] {2014 Japan Bethlehem}\10 - Like Someone In Love.wav Peak level 98.0 %
Extraction speed 1.4 X
Track quality 100.0 %
Test CRC 6925E005
Copy CRC 6925E005
Track not present in AccurateRip database
Copy OK

Track 11 Filename M:\_EAC\The Australian Jazz Quartet-Quintet - The Australian Jazz Quartet-Quintet (1956) [FLAC] {2014 Japan Bethlehem}\11 - The Thing We Did Last Summer.wav Peak level 98.2 %
Extraction speed 1.5 X
Track quality 100.0 %
Test CRC 3B7A4A82
Copy CRC 3B7A4A82
Track not present in AccurateRip database
Copy OK

Track 12 Filename M:\_EAC\The Australian Jazz Quartet-Quintet - The Australian Jazz Quartet-Quintet (1956) [FLAC] {2014 Japan Bethlehem}\12 - Fascinating Rhythm.wav Peak level 98.2 %
Extraction speed 1.6 X
Track quality 100.0 %
Test CRC 2854A560
Copy CRC 2854A560
Track not present in AccurateRip database
Copy OK

None of the tracks are present in the AccurateRip database

No errors occurred

End of status report

==== Log checksum 1317A9C8CE67B8F8CE17F69FC2C5F6FEB1064AC0FF904DCF8762A8537B8F53C4 ====

http://i71.fastpic.ru/big/2015/0826/0c/65e542bd6d40361a6ddc90b84c711c0c.jpg

http://i67.fastpic.ru/big/2015/0826/8d/b9a1879219beac38babca39cd052548d.jpg






NEXT -> More 2014 Japan Bethlehem Album Collection 1000 Remasters...
DOWNLOAD LINKS:
Buy Premium To Support Me & Get Resumable Support & Max Speed


Links are Interchangeable - No Password - Single Extraction

The Australian Jazz Quartet - The Australian Jazz Quartet/Quintet (1956) {2014 Japan Bethlehem Album Collection 1000} Fast Download



 
 
 
Dear visitor, you went to the site as an unregistered user. We encourage you to register or enter the site under your name.
 
   
 
 (Votes #: 0)