2013Zone For Latest Downloads

 
     
 
Legal Downloads » Music » Natalie Merchant - Retrospective 1990-2005 (2005) 2CD Deluxe Edition [Re-Up]
Menu
Home Applications
Games Movies
Music TV Shows
Torrents Graphics

Sitemap

RSS
 
Advanced Search
Last News
Site Info
Top Contributors:
  1    supper88 32766
  2    admin 32747
  3    Whisky 10080
  4    Shark_ 8911
  5    creativelivenew 8706
  6    whathesupa 2799
  7    candymypost 840
  8    hvnteam 629
  9    vuong87 3


Articles:
  This Hour: 0
  Today: 0
  This Month: 16
  All Time: 515460


Torrents:
  Today: 0
  Yesterday: 0
  All Time: 156710


Membership:
  Registered Today :0
  This Hour:0
  This Month:0
  Total:14
  Banned:1

{online}
{inform_torrent}
Friend:
Full Download Scripts
Torrent Download
Trend
Trend

Search In Site

Music : Natalie Merchant - Retrospective 1990-2005 (2005) 2CD Deluxe Edition [Re-Up]
 
http://i70.fastpic.ru/big/2015/0828/bd/b690dd7d317db9c01d3c61286cbee3bd.jpg

Natalie Merchant - Retrospective 1990-2005 (2005) 2CD Deluxe Edition
EAC | FLAC | Image (Cue&Log) ~ 768 Mb (incl 5%) | Mp3 (CBR320) ~ 307 Mb (incl 5%) | Scans ~ 222 Mb
Genre: Pop Rock, Folk Rock, Alternative Rock | Label: Elektra | # R2 73122 | Time: 02:07:40

"Retrospective 1995-2005 is Natalie Merchant's first greatest hits album, featuring her most popular songs. It was released on 27 September 2005 on Elektra Records. This deluxe edition version included a second disc with B-sides and rarities."

"Natalie Merchant was with 10,000 Maniacs for four full-length albums before she departed for a solo career. Four albums and ten years into her solo career, she released Retrospective 1995-2005, a 13-track collection of highlights, containing no rarities or B-sides (those were reserved for the simultaneously released deluxe edition of the album, which had a 15-track bonus disc containing all notable non-LP tracks, including three unreleased cuts, plus duets with the Chieftains, R.E.M., Billy Bragg, and Susan McKeown). Her solo career began on a high note with Tigerlily, a continuation of the sound of latter-day 10,000 Maniacs records, heavy on the polish and laid-back atmosphere and light on jangling guitars. It entered the charts at 13, spawned the Top Ten single, "Carnival," and its Top 20 follow-up, "Wonder," and garnered generally positive reviews. But her momentum began to slow on her 1998 sophomore effort, Ophelia, which may have climbed higher on the Billboard album charts, but it failed to produce any big hit; "Kind & Generous" peaked at 18, but it never gained the same popularity as either "Carnival" or "Wonder." From there, Merchant settled into a comfortable cult, turning out variations on the Tigerlily template on 2001's Motherland and getting a little folkier on 2003's collection of traditional tunes, The House Carpenter's Daughter. Retrospective balances these four albums nicely, selecting four cuts each from Tigerlily and Ophelia while taking three from Motherland and two from House Carpenter. It not only takes the obvious highlights from these albums, but it draws an accurate, representative picture of her solo career. Which is not to say that it will please 10,000 Maniacs fans looking for music in a similar vein -- after her solo debut, Merchant's music got a little too small and insular, a little more concerned with mood and lyrics than with pop hooks to appeal to a broader audience. Those fans will likely want to stick with Tigerlily, which is a more satisfying listen overall than Retrospective, but for those who want an overview of Natalie Merchant's solo career, this does a fine job of providing that.

Review by Stephen Thomas Erlewine, Allmusic.com
"




Tracklist:

CD1:

01. Wonder (04:24)
02. Carnival (05:59)
03. Jealousy (02:44)
04. San Andreas Fault (03:58)
05. Kind & Generous (04:05)
06. Break Your Heart (04:53)
07. Life Is Sweet (05:14)
08. The Living (03:18)
09. Build A Levee (04:48)
10. Not In This Life (05:22)
11. Motherland (04:45)
12. Owensboro (04:25)
13. Sally Ann (05:49)

CD2:

01. She Devil (05:55)
02. Cowboy Romance (08:02)
03. Children Go Where I Send Thee (05:12)
04. Birds & Ships (02:13) with Billy Bragg
05. The Lowlands Of Holland (03:49) with The Chieftains
06. One Fine Day (02:47)
07. Photograph (03:32) with R.E.M.
08. Party Of God (04:17) with Billy Bragg and 10,000 Maniacs
09. Thick As Thieves (06:23)
10. Bread & Circuses (04:24) with Billy Bragg
11. Because I Could Non Stop For Death (03:50) with Susan McKeown
12. Tell Yourself (05:05)
13. But Not For Me (03:26)
14. I Know How To Do It (04:26)
15. Come Take A Trip In My Airship (04:03)


Exact Audio Copy V1.0 beta 3 from 29. August 2011

Отчёт EAC об извлечении, выполненном 27. декабря 2011, 20:58

Natalie Merchant / Retrospective 1990-2005 CD1

Дисковод: PIONEER BD-RW BDR-206D Adapter: 1 ID: 1

Режим чтения : Достоверность
?спользование точного потока : Да
Отключение кэ?а аудио : Да
?спользование указателей C2 : Нет

Коррекция смещения при чтении : 667
Способность читать области Lead-in и Lead-out : Нет
Заполнение пропущенных сэмплов ти?иной : Да
Удаление блоков с ти?иной в начале и конце : Нет
При вычислениях CRC использовались нулевые сэмплы : Да
?нтерфейс : Встроенный Win32-интерфейс для Win NT/2000

Выходной формат : Пользовательский кодировщик
Выбранный битрейт : 1024 kBit/s
Качество : Высокий
Добавление ID3-тега : Нет
Утилита сжатия : H:\Program Files\Exact Audio Copy\FLAC\FLAC.EXE
Дополнительные параметры : -V -8 -T "Date=%year%" -T "Genre=%genre%" %source%

TOC извлечённого CD Трек | Старт | Длительность | Начальный сектор | Конечный сектор

1 | 0:00.00 | 4:24.69 | 0 | 19868
2 | 4:24.69 | 5:59.73 | 19869 | 46866
3 | 10:24.67 | 2:44.04 | 46867 | 59170
4 | 13:08.71 | 3:58.37 | 59171 | 77057
5 | 17:07.33 | 4:05.74 | 77058 | 95506
6 | 21:13.32 | 4:53.11 | 95507 | 117492
7 | 26:06.43 | 5:14.06 | 117493 | 141048
8 | 31:20.49 | 3:18.50 | 141049 | 155948
9 | 34:39.24 | 4:48.43 | 155949 | 177591
10 | 39:27.67 | 5:22.17 | 177592 | 201758
11 | 44:50.09 | 4:46.71 | 201759 | 223279
12 | 49:37.05 | 4:25.02 | 223280 | 243156
13 | 54:02.07 | 5:49.25 | 243157 | 269356

Характеристики диапазона извлечения и сообщения об о?ибках

Выбранный диапазон ?мя файла L:\Audio Lossless\Natalie Merchant. 2005 Retrospective 1990-2005 (2CD)\CD 1\Natalie Merchant - Retrospective 1990-2005 CD1.wav Пиковый уровень 99.8 %
Скорость извлечения 1.8 X
Качество диапазона 100.0 %
CRC теста 52AEA2C8
CRC копии 52AEA2C8
Копирование... OK

О?ибок не произо?ло


AccurateRip: сводка

Трек 1 : извлечено точно (доверие 4) [EFA4002E] (AR v2)
Трек 2 : извлечено точно (доверие 4) [3063F6D1] (AR v2)
Трек 3 : извлечено точно (доверие 4) [1B7BC552] (AR v2)
Трек 4 : извлечено точно (доверие 4) [70273354] (AR v2)
Трек 5 : извлечено точно (доверие 4) [05D71FE8] (AR v2)
Трек 6 : извлечено точно (доверие 5) [DFA0F2DF] (AR v2)
Трек 7 : извлечено точно (доверие 5) [3B00A24E] (AR v2)
Трек 8 : извлечено точно (доверие 5) [A04B2085] (AR v2)
Трек 9 : извлечено точно (доверие 5) [5D4FF68D] (AR v2)
Трек 10 : извлечено точно (доверие 5) [E546C693] (AR v2)
Трек 11 : извлечено точно (доверие 5) [E469B771] (AR v2)
Трек 12 : извлечено точно (доверие 4) [293B9C21] (AR v2)
Трек 13 : извлечено точно (доверие 4) [690B3327] (AR v2)

Все треки извлечены точно

Конец отчёта

==== Контрольная сумма отчёта 08FB0813EEB643D6AD8FAC23CF8E2CE0CC159FE880B19822C827B3FD80C213FF ====

foobar2000 1.2 / Dynamic Range Meter 1.1.1
log date: 2015-08-25 18:45:23

Analyzed: Natalie Merchant / Retrospective 1990-2005 CD1

DR Peak RMS Duration Track

DR7 -0.22 dB -9.97 dB 4:25 01-Wonder
DR10 -0.19 dB -12.58 dB 6:00 02-Carnival
DR10 -0.01 dB -11.46 dB 2:44 03-Jealousy
DR10 -0.62 dB -13.30 dB 3:58 04-San Andreas Fault
DR8 -0.28 dB -11.06 dB 4:06 05-Kind & Generous
DR9 -0.24 dB -11.17 dB 4:53 06-Break Your Heart
DR8 -0.01 dB -10.79 dB 5:14 07-Life Is Sweet
DR11 -0.72 dB -15.34 dB 3:19 08-The Living
DR7 -0.51 dB -9.93 dB 4:49 09-Build A Levee
DR8 -0.77 dB -9.82 dB 5:22 10-Not In This Life
DR9 -0.29 dB -12.64 dB 4:47 11-Motherland
DR9 -0.01 dB -11.05 dB 4:25 12-Owensboro
DR8 -0.01 dB -9.69 dB 5:49 13-Sally Ann

Number of tracks: 13
Official DR value: DR9

Samplerate: 44100 Hz
Channels: 2
Bits per sample: 16
Bitrate: 828 kbps
Codec: FLAC

Exact Audio Copy V1.0 beta 3 from 29. August 2011

Отчёт EAC об извлечении, выполненном 27. декабря 2011, 22:33

Natalie Merchant / Retrospective 1990-2005 CD2

Дисковод: PIONEER BD-RW BDR-206D Adapter: 1 ID: 1

Режим чтения : Достоверность
?спользование точного потока : Да
Отключение кэ?а аудио : Да
?спользование указателей C2 : Нет

Коррекция смещения при чтении : 667
Способность читать области Lead-in и Lead-out : Нет
Заполнение пропущенных сэмплов ти?иной : Да
Удаление блоков с ти?иной в начале и конце : Нет
При вычислениях CRC использовались нулевые сэмплы : Да
?нтерфейс : Встроенный Win32-интерфейс для Win NT/2000

Выходной формат : Пользовательский кодировщик
Выбранный битрейт : 1024 kBit/s
Качество : Высокий
Добавление ID3-тега : Нет
Утилита сжатия : H:\Program Files\Exact Audio Copy\FLAC\FLAC.EXE
Дополнительные параметры : -V -8 -T "Date=%year%" -T "Genre=%genre%" %source%

TOC извлечённого CD Трек | Старт | Длительность | Начальный сектор | Конечный сектор

1 | 0:00.00 | 5:55.70 | 0 | 26694
2 | 5:55.70 | 8:03.73 | 26695 | 62992
3 | 13:59.68 | 5:15.22 | 62993 | 86639
4 | 19:15.15 | 2:13.20 | 86640 | 96634
5 | 21:28.35 | 3:49.20 | 96635 | 113829
6 | 25:17.55 | 2:47.11 | 113830 | 126365
7 | 28:04.66 | 3:32.34 | 126366 | 142299
8 | 31:37.25 | 4:17.47 | 142300 | 161621
9 | 35:54.72 | 6:24.33 | 161622 | 190454
10 | 42:19.30 | 4:26.45 | 190455 | 210449
11 | 46:46.00 | 3:51.55 | 210450 | 227829
12 | 50:37.55 | 5:09.64 | 227830 | 251068
13 | 55:47.44 | 3:28.20 | 251069 | 266688
14 | 59:15.64 | 4:29.03 | 266689 | 286866
15 | 63:44.67 | 4:03.28 | 286867 | 305119

Характеристики диапазона извлечения и сообщения об о?ибках

Выбранный диапазон ?мя файла L:\Audio Lossless\Natalie Merchant. 2005 Retrospective 1990-2005 (2CD)\CD 2\Natalie Merchant - Retrospective 1990-2005 CD2.wav Пиковый уровень 99.8 %
Скорость извлечения 1.9 X
Качество диапазона 100.0 %
CRC теста 3F8060F1
CRC копии 3F8060F1
Копирование... OK

О?ибок не произо?ло


AccurateRip: сводка

Трек 1 : извлечено точно (доверие 3) 7C4A98B (AR v2)
Трек 2 : извлечено точно (доверие 3) [1A29867C] (AR v2)
Трек 3 : извлечено точно (доверие 3) [D5E9FF9F] (AR v2)
Трек 4 : извлечено точно (доверие 3) [070A9511] (AR v2)
Трек 5 : извлечено точно (доверие 3) [83A51D3D] (AR v2)
Трек 6 : извлечено точно (доверие 3) [FE3936E6] (AR v2)
Трек 7 : извлечено точно (доверие 3) [66693980] (AR v2)
Трек 8 : извлечено точно (доверие 3) [67D526B3] (AR v2)
Трек 9 : извлечено точно (доверие 3) [D65EEB84] (AR v2)
Трек 10 : извлечено точно (доверие 3) [C309BE7F] (AR v2)
Трек 11 : извлечено точно (доверие 2) [447CA47B] (AR v2)
Трек 12 : извлечено точно (доверие 2) [FBDD2210] (AR v2)
Трек 13 : извлечено точно (доверие 2) [A5FC924E] (AR v2)
Трек 14 : извлечено точно (доверие 3) [5DDDD300] (AR v2)
Трек 15 : извлечено точно (доверие 3) [58796D64] (AR v2)

Все треки извлечены точно

Конец отчёта

==== Контрольная сумма отчёта 78EA0798F6EBF7324A215741E94F42015AF06484D52A64443DD5CC7C02501CCE ====

foobar2000 1.2 / Dynamic Range Meter 1.1.1
log date: 2015-08-25 18:45:44

Analyzed: Natalie Merchant / Retrospective 1990-2005 CD2

DR Peak RMS Duration Track

DR8 -0.91 dB -11.39 dB 5:56 01-She Devil
DR10 -0.01 dB -13.27 dB 8:04 02-Cowboy Romance
DR9 -0.42 dB -10.87 dB 5:15 03-Children Go Where I Send Thee
DR10 -0.81 dB -13.58 dB 2:13 04-Birds & Ships
DR9 -0.93 dB -13.51 dB 3:49 05-The Lowlands Of Holland
DR10 -2.29 dB -15.60 dB 2:47 06-One Fine Day
DR9 -0.01 dB -10.39 dB 3:32 07-Photograph
DR8 -0.01 dB -11.00 dB 4:18 08-Party Of God
DR12 -0.90 dB -17.46 dB 6:24 09-Thick As Thieves
DR10 -1.88 dB -14.24 dB 4:27 10-Bread & Circuses
DR9 -1.07 dB -13.37 dB 3:52 11-Because I Could Non Stop For Death
DR12 -0.92 dB -15.64 dB 5:10 12-Tell Yourself
DR12 -1.42 dB -16.28 dB 3:28 13-But Not For Me
DR11 -1.21 dB -13.71 dB 4:29 14-I Know How To Do It
DR10 -0.01 dB -12.72 dB 4:03 15-Come Take A Trip In My Airship

Number of tracks: 15
Official DR value: DR10

Samplerate: 44100 Hz
Channels: 2
Bits per sample: 16
Bitrate: 778 kbps
Codec: FLAC

http://i65.fastpic.ru/big/2015/0828/0f/0f452450c0e55dab8ea7afc29b25330f.jpg

http://i67.fastpic.ru/big/2015/0828/d2/313aae24309fa10226ae77c92b9836d2.jpg

All thanks to original releaser - Mawrix



Password: designol

DOWNLOAD LINKS:
Buy Premium To Support Me & Get Resumable Support & Max Speed


Links are Interchangeable - No Password - Single Extraction

Natalie Merchant - Retrospective 1990-2005 (2005) 2CD Deluxe Edition [Re-Up] Fast Download



 
 
 
Dear visitor, you went to the site as an unregistered user. We encourage you to register or enter the site under your name.
 
   
 
 (Votes #: 0)