2013Zone For Latest Downloads

 
     
 
Legal Downloads » Music » The Stranglers - Greatest Hits 1977-1990 (1990)
Menu
Home Applications
Games Movies
Music TV Shows
Torrents Graphics

Sitemap

RSS
 
Advanced Search
Last News
Site Info
Top Contributors:
  1    supper88 32766
  2    admin 32658
  3    Whisky 10080
  4    Shark_ 8911
  5    creativelivenew 8706
  6    whathesupa 2799
  7    candymypost 840
  8    hvnteam 629
  9    vuong87 3


Articles:
  This Hour: 0
  Today: 0
  This Month: 18
  All Time: 515669


Torrents:
  Today: 0
  Yesterday: 0
  All Time: 156685


Membership:
  Registered Today :0
  This Hour:0
  This Month:0
  Total:14
  Banned:1

{online}
{inform_torrent}
Friend:
We Recomend
Trend
Trend
onlinemovies

Search In Site

Music : The Stranglers - Greatest Hits 1977-1990 (1990)
 
http://i68.fastpic.ru/big/2015/0831/22/5b958e94a67c3f0edf88b70e19d54922.jpg

The Stranglers - Greatest Hits 1977-1990 (1990)
EAC | FLAC | Image (Cue&Log) ~ 414 Mb (incl 5%) | Mp3 (CBR320) ~ 180 Mb (incl 5%) | Scans included
Genre: Rock, New Wave, British Punk, Alternative Pop/Rock | Label: Epic | # 467541 2 | Time: 00:54:20

"Despite its rather cheeky title, Greatest Hits 1977-1990 is a good place to sample the entire Stranglers output. From the squalor of the late-'70s material, to the smoothed-out gloom pop of songs like "Skin Deep" and other mid- to late-'80s neo-goth rock, this is a solid anthology that values substance over style and exhaustive track selection. For sure, a well-edited Stranglers anthology is the only way to enjoy them; they recorded way too much dross to spend time searching out all of their plentiful, marginal records."



Tracklist:

01. Peaches (04:06)
02. Something Better Change (03:35)
03. No More Heroes (03:28)
04. Walk On By (06:21)
05. Duchess (02:30)
06. Golden Brown (03:30)
07. Strange Little Girl (02:43)
08. European Female (04:02)
09. Skin Deep (03:56)
10. Nice In Nice (03:47)
11. Always The Sun (04:06)
12. Big In America (03:05)
13. All Day And All Of The Night (02:31)
14. 96 Tears (03:05)
15. No Mercy (03:30)


Exact Audio Copy V0.99 prebeta 5 from 4. May 2009

Отчёт EAC об извлечении, выполненном 11. мая 2011, 22:42

The Stranglers / Greatest Hits 1977-1990

Дисковод: Optiarc DVD RW AD-7201A Adapter: 0 ID: 0

Режим чтения : Достоверность
?спользование точного потока : Да
Отключение кэ?а аудио : Да
?спользование указателей C2 : Нет

Коррекция смещения при чтении : 48
Способность читать области Lead-in и Lead-out : Нет
Заполнение пропущенных сэмплов ти?иной : Да
Удаление блоков с ти?иной в начале и конце : Нет
При вычислениях CRC использовались нулевые сэмплы : Да
?нтерфейс : Установленный вне?ний ASPI-интерфейс

Выходной формат : Внутренние WAV-операции
Формат сэмплов : 44.100 Гц; 16 бит; стерео

TOC извлечённого CD Трек | Старт | Длительность | Начальный сектор | Конечный сектор

1 | 0:00.00 | 4:06.30 | 0 | 18479
2 | 4:06.30 | 3:35.25 | 18480 | 34629
3 | 7:41.55 | 3:28.00 | 34630 | 50229
4 | 11:09.55 | 6:21.35 | 50230 | 78839
5 | 17:31.15 | 2:30.60 | 78840 | 90149
6 | 20:02.00 | 3:30.27 | 90150 | 105926
7 | 23:32.27 | 2:43.08 | 105927 | 118159
8 | 26:15.35 | 4:02.22 | 118160 | 136331
9 | 30:17.57 | 3:56.25 | 136332 | 154056
10 | 34:14.07 | 3:47.00 | 154057 | 171081
11 | 38:01.07 | 4:06.18 | 171082 | 189549
12 | 42:07.25 | 3:05.60 | 189550 | 203484
13 | 45:13.10 | 2:31.37 | 203485 | 214846
14 | 47:44.47 | 3:05.10 | 214847 | 228731
15 | 50:49.57 | 3:30.50 | 228732 | 244531

Характеристики диапазона извлечения и сообщения об о?ибках

Выбранный диапазон ?мя файла S:\MUZZIGG\The Stranglers - Greatest Hits 1977-1990\The Stranglers - Greatest Hits 1977-1990.wav Пиковый уровень 100.0 %
Качество диапазона 100.0 %
CRC теста C27BE406
CRC копии C27BE406
Копирование... OK

О?ибок не произо?ло


AccurateRip: сводка

Трек 1 точное извлечение (доверие 118) [9AA36F48]
Трек 2 точное извлечение (доверие 117) [F668D876]
Трек 3 точное извлечение (доверие 116) [C8DC50EE]
Трек 4 точное извлечение (доверие 117) [9736619E]
Трек 5 точное извлечение (доверие 118) 813ED0B
Трек 6 точное извлечение (доверие 119) 01B28DD
Трек 7 точное извлечение (доверие 116) [4264F029]
Трек 8 точное извлечение (доверие 116) A071D2A
Трек 9 точное извлечение (доверие 117) [6084388B]
Трек 10 точное извлечение (доверие 116) [E743F212]
Трек 11 точное извлечение (доверие 116) [0B27BEA3]
Трек 12 точное извлечение (доверие 117) [6B99176C]
Трек 13 точное извлечение (доверие 117) [5E2C7A17]
Трек 14 точное извлечение (доверие 116) [F6ED493D]
Трек 15 точное извлечение (доверие 107) [F4CD27BC]

Все треки извлечены точно

Конец отчёта

[CUETools log; Date: 29.08.2015 12:20:18; Version: 2.1.4]
[CTDB TOCID: 3temRVX4FnMo3BXVsL.AQEW10rU-] found.
Track | CTDB Status
1 | (148/149) Accurately ripped
2 | (146/149) Accurately ripped
3 | (148/149) Accurately ripped
4 | (148/149) Accurately ripped
5 | (148/149) Accurately ripped
6 | (149/149) Accurately ripped
7 | (149/149) Accurately ripped
8 | (148/149) Accurately ripped
9 | (149/149) Accurately ripped
10 | (147/149) Accurately ripped
11 | (148/149) Accurately ripped
12 | (148/149) Accurately ripped
13 | (148/149) Accurately ripped
14 | (146/149) Accurately ripped
15 | (145/149) Accurately ripped
[AccurateRip ID: 001f1cfa-015d3003-c80cbc0f] found.
Track [ CRC | V2 ] Status
01 [9aa36f48|57193e0f] (129+126/367) Accurately ripped
02 [f668d876|8b33dd8d] (128+128/366) Accurately ripped
03 [c8dc50ee|fab607de] (127+128/365) Accurately ripped
04 [9736619e|38f3d130] (128+126/365) Accurately ripped
05 813ed0b|220bdf98 (129+127/366) Accurately ripped
06 01b28dd|ac913a21 (130+131/373) Accurately ripped
07 [4264f029|c9478147] (127+129/366) Accurately ripped
08 a071d2a|026f816d (127+129/365) Accurately ripped
09 [6084388b|59895e5f] (128+130/367) Accurately ripped
10 [e743f212|001bbd7f] (127+126/361) Accurately ripped
11 [0b27bea3|63bcc9ce] (127+128/367) Accurately ripped
12 [6b99176c|2d68ee42] (128+127/363) Accurately ripped
13 [5e2c7a17|11f5559a] (128+127/366) Accurately ripped
14 [f6ed493d|c0f6df60] (127+126/364) Accurately ripped
15 [f4cd27bc|eb8346d4] (118+124/354) Accurately ripped
Offsetted by -628:
01 [c89730d4] (003/367) Accurately ripped
02 bc489c2 (003/366) Accurately ripped
03 [f175db26] (003/365) Accurately ripped
04 [0fa2983a] (003/365) Accurately ripped
05 [9be347a7] (003/366) Accurately ripped
06 [80719249] (003/373) Accurately ripped
07 [ea699059] (003/366) Accurately ripped
08 [02528a42] (003/365) Accurately ripped
09 [a1ba5bcf] (003/367) Accurately ripped
10 [a7cd9b1a] (003/361) Accurately ripped
11 [eb16e2a3] (003/367) Accurately ripped
12 [fcb358fc] (003/363) Accurately ripped
13 [74b9ad3f] (003/366) Accurately ripped
14 [482e986d] (003/364) Accurately ripped
15 [6a89f15e] (003/354) Accurately ripped
Offsetted by -114:
01 [d4b668d6] (045/367) Accurately ripped
02 [acfcc064] (043/366) Accurately ripped
03 [ef36265a] (043/365) Accurately ripped
04 [10899e14] (044/365) Accurately ripped
05 [132a1381] (044/366) Accurately ripped
06 06c119b (045/373) Accurately ripped
07 [01817f61] (044/366) Accurately ripped
08 [3bbcc146] (043/365) Accurately ripped
09 [29803045] (043/367) Accurately ripped
10 [fecd71c6] (042/361) Accurately ripped
11 [d1f8a8a3] (046/367) Accurately ripped
12 [3a1ddb94] (042/363) Accurately ripped
13 [18138f9b] (044/366) Accurately ripped
14 [517fa9f5] (044/364) Accurately ripped
15 [71a2e8a7] (044/354) Accurately ripped
Offsetted by -29:
01 [a06de02b] (002/367) Accurately ripped
02 [10a4ed49] (002/366) Accurately ripped
03 [fd48807c] (002/365) Accurately ripped
04 [a41c65c5] (002/365) Accurately ripped
05 [46443a32] (002/366) Accurately ripped
06 [977c17b8] (002/373) Accurately ripped
07 [389fda35] (002/366) Accurately ripped
08 [19e6b970] (002/365) Accurately ripped
09 [8aa95edc] (002/367) Accurately ripped
10 [8cb10754] (002/361) Accurately ripped
11 [8a1507a3] (002/367) Accurately ripped
12 [2fda4dd0] (002/363) Accurately ripped
13 [18b15de1] (002/366) Accurately ripped
14 [3d1fff09] (002/364) Accurately ripped
15 [e3f7269c] (002/354) Accurately ripped
Offsetted by -664:
01 [543164b0] (000/367) No match (V2 was not tested)
02 [4644165e] (000/366) No match (V2 was not tested)
03 [fd92397e] (000/365) No match (V2 was not tested)
04 [287982e6] (000/365) No match (V2 was not tested)
05 [31ea4653] (000/366) No match (V2 was not tested)
06 [8e046285] (000/373) No match (V2 was not tested)
07 af951c9 (000/366) No match (V2 was not tested)
08 [da70f3fa] (000/365) No match (V2 was not tested)
09 [5a75b783] (000/367) No match (V2 was not tested)
10 [86d09b02] (000/361) No match (V2 was not tested)
11 [a322f6a3] (000/367) No match (V2 was not tested)
12 [a9b4da4c] (000/363) No match (V2 was not tested)
13 [d7da3ac7] (000/366) No match (V2 was not tested)
14 [a826ecdd] (000/364) No match (V2 was not tested)
15 [09f29dc6] (000/354) No match (V2 was not tested)

Track Peak [ CRC32 ] [W/O NULL] [ LOG ]
-- 100,0 [C27BE406] [202D45D4] CRC32
01 88,6 [FE671FBC] [5CC3D7BE]
02 100,0 [DCE95943] [C8E0EAA6]
03 100,0 [CAE7D20E] [888304E0]
04 100,0 [283BA6B2] [81DFD621]
05 97,6 [2A2D663E] [EB2A9BC5]
06 100,0 [34FC1305] [756E8A03]
07 99,6 [3105ACE0] [6F964DE1]
08 93,3 [399663C0] [D396F6E6]
09 100,0 [2897185B] [265ABCDB]
10 100,0 [3EB469AC] [C4D13AD1]
11 100,0 [915DC9D1] [207B8F97]
12 95,5 [D35394F1] [0A0DF64F]
13 100,0 [A4D670A3] [9D68AF8A]
14 79,4 [DC049475] [CD0FD477]
15 86,7 [D6953F80] [332731F5]

foobar2000 1.2 / Dynamic Range Meter 1.1.1
log date: 2015-08-29 12:20:22

Analyzed: The Stranglers / Greatest Hits 1977-1990

DR Peak RMS Duration Track

DR14 -1.05 dB -16.87 dB 4:06 01-Peaches
DR14 0.00 dB -15.67 dB 3:35 02-Something Better Change
DR13 0.00 dB -14.05 dB 3:28 03-No More Heroes
DR9 0.00 dB -12.77 dB 6:21 04-Walk On By
DR11 -0.21 dB -14.02 dB 2:31 05-Duchess
DR14 0.00 dB -15.45 dB 3:30 06-Golden Brown
DR11 -0.03 dB -13.79 dB 2:43 07-Strange Little Girl
DR12 -0.60 dB -14.37 dB 4:02 08-European Female
DR11 0.00 dB -13.77 dB 3:56 09-Skin Deep
DR12 0.00 dB -14.17 dB 3:47 10-Nice In Nice
DR13 0.00 dB -15.92 dB 4:06 11-Always The Sun
DR12 -0.40 dB -13.50 dB 3:06 12-Big In America
DR12 0.00 dB -14.12 dB 2:31 13-All Day And All Of The Night
DR10 -2.00 dB -13.37 dB 3:05 14-96 Tears
DR10 -1.23 dB -13.30 dB 3:31 15-No Mercy

Number of tracks: 15
Official DR value: DR12

Samplerate: 44100 Hz
Channels: 2
Bits per sample: 16
Bitrate: 893 kbps
Codec: FLAC

http://i72.fastpic.ru/big/2015/0831/f8/36d506974e24dcd421df127c68e1c8f8.jpg

http://i71.fastpic.ru/big/2015/0831/25/7d61316e1a6c0e2291dd54e80472cd25.jpg

All thanks to original releaser - maestro-ural

Password: designol

DOWNLOAD LINKS:
Buy Premium To Support Me & Get Resumable Support & Max Speed


Links are Interchangeable - No Password - Single Extraction

 
 
 
Dear visitor, you went to the site as an unregistered user. We encourage you to register or enter the site under your name.
 
   
 
 (Votes #: 0)