2013Zone For Latest Downloads

 
     
 
Legal Downloads » Music » Wolfgang Bauer: Vassily/Willy Brandt & Oskar Böhme - Music for Trumpet (2009) {Hybrid-SACD // EAC Rip} [RE-UP]
Menu
Home Applications
Games Movies
Music TV Shows
Torrents Graphics

Sitemap

RSS
 
Advanced Search
Last News
Site Info
Top Contributors:
  1    supper88 32766
  2    admin 32761
  3    Whisky 10080
  4    Shark_ 8911
  5    creativelivenew 8706
  6    whathesupa 2799
  7    candymypost 840
  8    hvnteam 629
  9    vuong87 3


Articles:
  This Hour: 0
  Today: 0
  This Month: 0
  All Time: 515455


Torrents:
  Today: 0
  Yesterday: 0
  All Time: 156739


Membership:
  Registered Today :0
  This Hour:0
  This Month:0
  Total:14
  Banned:1

{online}
{inform_torrent}
Friend:
Full Download Scripts
Torrent Download
Trend
Trend

Search In Site

Music : Wolfgang Bauer: Vassily/Willy Brandt & Oskar Böhme - Music for Trumpet (2009) {Hybrid-SACD // EAC Rip} [RE-UP]
 

http://i66.fastpic.ru/big/2015/0916/2b/dadaaa95f016111473a2830a973a4e2b.jpg
Vassily/Willy Brandt (1869-1923) & Oskar Böhme (1870-1938) - Music for Trumpet
Wolfgang Bauer (trumpet), Oliver Triendl (piano), Ensemble Wolfgang Bauer
EAC+LOG+CUE | FLAC: 196 MB | Full Artwork | 5% Recovery Info
Label/Cat#: MDG # 901 1577-67 | Country/Year: Germany 2009
Genre: Classical | Style: Romantic / Modern, Trumpet

"...This is another winner for MDG in the sound department. There is a palpable sense of "place", of being somewhere specific, conveyed by the 2+2+2 sound; it is suitably reverberant but not overwhelming. The piano is realistically distant (no under-the-lid clarity here), and its bass register is rich and strong. But the cornet/trumpet is the star of the show, and Mr. Bauer's golden tone blooms beautifully in the ample recorded space, wherever that is. A superbly planned and executed recital in perfect sound. What more could you want?"




http://i71.fastpic.ru/big/2015/0916/01/8cbcc0042694d3dcc86b97acda92d901.jpg



Exact Audio Copy V1.0 beta 3 from 29. August 2011

EAC extraction logfile from 13. September 2012, 12:16

Wolfgang Bauer / Music For Trumpet: Brandt & Böhme

Used drive : PIONEER BD-RW BDR-206 Adapter: 0 ID: 2

Read mode : Secure
Utilize accurate stream : Yes
Defeat audio cache : Yes
Make use of C2 pointers : No

Read offset correction

: 667
Overread into Lead-In and Lead-Out : No
Fill up missing offset samples with silence : Yes
Delete leading and trailing silent blocks : No
Null samples used in CRC calculations : Yes
Used interface
: Native Win32 interface for Win NT & 2000

Used output format : User Defined Encoder
Selected bitrate : 1024 kBit/s
Quality : High
Add ID3 tag : Yes
Command line compressor : C:\Program Files\FLAC\flac.exe
Additional command line options : -5 -T "Artist=%artist%" -T "Title=%title%" -T "Album=%albumtitle%" -T "Date=%year%" -T "Tracknumber=%tracknr%" -T "Genre=%genre%" %source% -o %dest%

TOC of the extracted CD Track | Start | Length | Start sector | End sector
--1 | 0:00.00 | 7:16.44 | 0 | 32743 2 | 7:16.44 | 5:18.20 | 32744 | 56613 3 | 12:34.64 | 2:25.17 | 56614 | 67505 4 | 15:00.06 | 4:34.74 | 67506 | 88129 5 | 19:35.05 | 3:49.56 | 88130 | 105360 6 | 23:24.61 | 7:07.66 | 105361 | 137451 7 | 30:32.52 | 5:50.66 | 137452 | 163767 8 | 36:23.43 | 4:35.15 | 163768 | 184407 9 | 40:58.58 | 3:26.45 | 184408 | 199902
10 | 44:25.28 | 2:45.58 | 199903 | 212335
11 | 47:11.11 | 2:35.05 | 212336 | 223965
12 | 49:46.16 | 3:38.39 | 223966 | 240354
13 | 53:24.55 | 3:39.67 | 240355 | 256846
14 | 57:04.47 | 4:23.45 | 256847 | 276616

Range status and errors

Selected range Filename F:\=== VINYL RIPS ===\=== EAC===\X FRESH RIP\Brandt & Böhme- Wolfgang Bauer - Music For Trumpet.wav Peak level 79.9 %
Extraction speed 7.7 X
Range quality 99.9 %
Test CRC 318AE76A
Copy CRC 318AE76A
Copy OK

No errors occurred


AccurateRip summary

Track 1 not present in database
Track 2 not present in database
Track 3 not present in database
Track 4 not present in database
Track 5 not present in database
Track 6 not present in database
Track 7 not present in database
Track 8 not present in database
Track 9 not present in database
Track 10 not present in database
Track 11 not present in database
Track 12 not present in database
Track 13 not present in database
Track 14 not present in database

None of the tracks are present in the AccurateRip database

End of status report

- CUETools DB Plugin V2.1.3

[CTDB TOCID: Q2Mc5n_PiIaCQb71gxE58RKO80s-] disk not present in database, Submit result: database access error: Timeout für Vorgang überschritten

==== Log checksum 1C171905527D398A62108A6BCCE21945C6B4B531E4527D1B9C9308A6F713FCDA ====

foobar2000 1.1.11 / Dynamic Range Meter 1.1.1
log date: 2012-10-11 08:05:15

Analyzed: Wolfgang Bauer, Oliver Triendl, Ensemble Wolfgang Bauer / Vassily Brandt / Oskar Böhme: Music for Trumpet (1) ? / ? (2) Wolfgang Bauer, Oliver Triendl, Ensemble Wolfgang Bauer / Vassily Brandt / Oskar Böhme: Music for Trumpet (3-5) ? / ? (6) Wolfgang Bauer, Oliver Triendl, Ensemble Wolfgang Bauer / Vassily Brandt / Oskar Böhme: Music for Trumpet (7-14)

DR Peak RMS Duration Track

DR14 -7.02 dB -29.16 dB 7:09 01-Concert Piece No. 1 op. 11 in F minor for Cornet à Piston and Piano - Maestoso, Moderato, Agitato, Tempo primo, Presto
DR15 -7.29 dB -26.63 dB 5:15 ?-Brass Sextet op. 30 in E flat minor for Cornet à Piston, 2 Trumpets, Horn, Trombone and Tuba - Adagio ma non tanto, Allegro moltoTPE1
DR16 -9.53 dB -30.25 dB 2:25 03-Brass Sextet op. 30 in E flat minor for Cornet à Piston, 2 Trumpets, Horn, Trombone and Tuba - Scherzo. Allegro vivace
DR14 -7.92 dB -27.80 dB 4:35 04-Brass Sextet op. 30 in E flat minor for Cornet à Piston, 2 Trumpets, Horn, Trombone and Tuba - Andante cantabile
DR15 -6.24 dB -27.34 dB 3:43 05-Brass Sextet op. 30 in E flat minor for Cornet à Piston, 2 Trumpets, Horn, Trombone and Tuba - Allegro con spirito
DR16 -8.48 dB -28.86 dB 7:02 ?-Concert Piece No. 2 op. 12 in E flat major for Cornet à Piston and Piano - Allegro con fuoco, Allegro moderato, Tempo primo, Andante quasi Largo, Allegro energico, Tempo di Marcia, Allegro moderato, Tempo primoTPE1
DR14 -9.41 dB -27.71 dB 5:51 07-Concerto op 18 in F minor for Trumpet and Piano - Allegro moderato
DR13 -7.64 dB -29.03 dB 4:35 08-Concerto op 18 in F minor for Trumpet and Piano - Andante religioso
DR15 -9.00 dB -28.50 dB 3:20 09-Concerto op 18 in F minor for Trumpet and Piano - Rondo scherzando
DR14 -8.63 dB -28.86 dB 2:46 10-Country Pieces for 4 trumpets - In the Church
DR15 -7.57 dB -28.83 dB 2:35 11-Country Pieces for 4 trumpets - Under a Lime-Tree
DR16 -8.49 dB -29.51 dB 3:33 12-Country Pieces for 4 trumpets - At the Feast
DR14 -8.00 dB -31.82 dB 3:35 13-Berceuse op. 14 for Cornet à Piston and Piano
DR16 -8.76 dB -30.26 dB 4:24 14-Russian Dance op. 32 for Trumpet and Piano

Number of tracks: 14
Official DR value: DR15

Samplerate: 2822400 Hz / PCM Samplerate: 176400 Hz
Channels: 2
Bits per sample: 24
Bitrate: 5645 kbps
Codec: DSD64

SACD Info:

Vassily/Willy Brandt (1869-1923) - Oskar Böhme (1870-1938) - Music for Trumpet

Wolfgang Bauer (trumpet), Oliver Triendl (piano), Ensemble Wolfgang Bauer

Label: MDG
Catalog#: 901 1577-67
Format: Hybrid-SACD, Album, Stereo, Multichannel
Country: Germany
Released: 2009
Genre: Classical

Tracklist:

01. Brandt: Concert Piece No. 1 in F minor for Trumpet and Piano, Op. 11 7:16
02. Böhme: Brass Sextet in E-flat minor, Op. 30 - 1. Adagio ma non tanto - Allegro molto 5:18
03. Böhme: Brass Sextet in E-flat minor, Op. 30 - 2. Scherzo. Allegro Vivace 2:25
04. Böhme: Brass Sextet in E-flat minor, Op. 30 - 3. Andante Cantabile 4:34
05. Böhme: Brass Sextet in E-flat minor, Op. 30 - 4. Allegro con spirito 3:49
06. Brandt: Concert Piece No. 2 in E-flat major, Op. 12 7:07
07. Böhme: Concerto in F minor for Trumpet and Piano, Op. 18 - 1. Allegro moderato 5:50
08. Böhme: Concerto in F minor for Trumpet and Piano, Op. 18 - 2. Andante religioso 4:35
09. Böhme: Concerto in F minor for Trumpet and Piano, Op. 18 - 3. Rondo scherzando 3:26
10. Brandt: Country Pieces for 4 Trumpets - 1. In the Church 2:45
11. Brandt: Country Pieces for 4 Trumpets - 2. Under a Lime-Tree 2:35
12. Brandt: Country Pieces for 4 Trumpets - 3. At the Feast 3:38
13. Brandt: Berceuse for Cornet and Piano, Op. 14 3:39
14. Böhme: Russian Dance for Trumpet and Piano, Op. 32

4:23

Ensemble Wolfgang Bauer:

Wolfgang Bauer (cornet a piston, trumpet)
Thomas Kiess (trumpet)
Sebastian Zech (trumpet)
Tobias Tiegler (trumpet)
Christian Lampert (horn)
Henning Wiegräbe (trombone)
Fabian Zürn (tuba)

Recording: December, 3-4, 2008 (2-5, 10-12), April, 6-7 2009 (1, 6-9, 13-14), Ehem. Ackerhaus der Abtei Marienmünster.
Notes by Dr. Irmlind Capelle

http://i67.fastpic.ru/big/2015/0916/17/ed766d9cbde33b0381dd40a037842a17.jpg


"Review by steviev March 7, 2010

Wow, what a boring looking disc. MDG sure has a knack for cloaking superb productions beneath the most soporific covers.

This hour-long recital is split pretty evenly between the music of Willy Brandt and Oskar Bohme, both born about 1870. All of this music was written circa 1900, but sounds about seventy years older. The biggest influences are Mendelssohn and Paganini.

Paganini looms especially large in the cornet/piano pieces of Brandt, which contrast impressive technical gymnastics and aching cantabile melodies. None of it memorable, of course - this is pure display fluff for the cornet. Accompaniments are perfunctory, similar to the least interesting songs of Schubert and Rachmaninoff - mostly bass octaves for the left hand and stamping quavers for the right. Great fun, though.

Bohme's music is more complex and perhaps darker than Brandt's. His Brass Sextet for cornet, two trumpets, horn, trombone, and tuba is a case in point. The first movement's introduction is somber and wistful - the last thing you expect in this genre. The allegro proper is serious and determined, with continual virtuoso counterpoint for every instrument, even the tuba. This is true chamber music, not a symphony in miniature. The short scherzo trips along playfully, a welcome respite from the preceding heaviness. The andante is a slowly mounting song of lament; completely unmemorable but effective and affecting nonetheless. The finale is a glorious romp bursting with hunting calls and fanfares aplenty. Artistically, this is the high point of the programme.

Bohme's concerto is not as impressive - it's more Paganini than Mendelssohn. The trumpet runs the usual gauntlet of zippy chromatic scales, blistering runs, and machine-gun repeated notes. And of course, the requisite long-breathed legato melodies. Exciting stuff, but not very memorable or moving. The piano part often sounds like an orchestral reduction; is there a version for orchestra? The notes offer not a clue.

Hmm, this review sounds a bit negative so far, but I assure you that's not the case. Mr. Bauer has the phenomenal chops necessary to sell this (mostly) aesthetically wan music. Any professional trumpeter could fly unscathed over the technical hurdles presented by this music, but I have heard very few with Mr. Bauer's scrumptious singing tone. This is trumpet playing at its sweetest, especially in quiet and cantabile passages. For those who have heard him, think of Martin Frost's effortless velvet-honey clarinet tone. Like him, Mr. Bauer never seems to strain, regardless of the challenge.

This is another winner for MDG in the sound department. There is a palpable sense of "place", of being somewhere specific, conveyed by the 2+2+2 sound; it is suitably reverberant but not overwhelming. The piano is realistically distant (no under-the-lid clarity here), and its bass register is rich and strong. But the cornet/trumpet is the star of the show, and Mr. Bauer's golden tone blooms beautifully in the ample recorded space, wherever that is.

A superbly planned and executed recital in perfect sound. What more could you want? SA-CD.net

http://i67.fastpic.ru/big/2015/0916/ad/429bc641aef59d41ce0849c8f9d0a9ad.jpg

"

DOWNLOAD LINKS:
Buy Premium To Support Me & Get Resumable Support & Max Speed


Links are Interchangeable - No Password - Single Extraction

Wolfgang Bauer: Vassily/Willy Brandt & Oskar Böhme - Music for Trumpet (2009) {Hybrid-SACD // EAC Rip} [RE-UP] Fast Download



 
 
 
Dear visitor, you went to the site as an unregistered user. We encourage you to register or enter the site under your name.
 
   
 
 (Votes #: 0)