2013Zone For Latest Downloads

 
     
 
Legal Downloads » Music » Phil Woods - Warm Woods (1957) {2014 Japan Jazz Collection 1000 Columbia-RCA Series}
Menu
Home Applications
Games Movies
Music TV Shows
Torrents Graphics

Sitemap

RSS
 
Advanced Search
Last News
Site Info
Top Contributors:
  1    supper88 32766
  2    admin 32671
  3    Whisky 10080
  4    Shark_ 8911
  5    creativelivenew 8706
  6    whathesupa 2799
  7    candymypost 840
  8    hvnteam 629
  9    vuong87 3


Articles:
  This Hour: 0
  Today: 0
  This Month: 59
  All Time: 515636


Torrents:
  Today: 0
  Yesterday: 0
  All Time: 156702


Membership:
  Registered Today :0
  This Hour:0
  This Month:0
  Total:14
  Banned:1

{online}
{inform_torrent}
Friend:
We Recomend
Trend
Trend

Search In Site

Music : Phil Woods - Warm Woods (1957) {2014 Japan Jazz Collection 1000 Columbia-RCA Series}
 

http://i72.fastpic.ru/big/2015/1008/82/f449745d5611a0550acc570e40961882.jpg
Phil Woods - Warm Woods (1957) {2014 Japan Jazz Collection 1000 Columbia-RCA Series}
EAC rip (secure mode) | FLAC (tracks)+CUE+LOG -> 312 Mb | MP3 @320 -> 111 Mb
Full Artwork @ 600 dpi (png) -> 187 Mb | 5% repair rar
© 2014 Epic / Sony Music Japan | SICP 4213 | DSD Remaster
Jazz / Bop / Hard Bop / Saxophone

"This long-out-of-print CD has finally been reissued and it's a must-have for Phil Woods fans, or for anyone interested in an excellent example of post-Parker be-bop saxophone. The sound quality is excellent, the rhythm section is very competent and Phil is at the top of his game on a nice mix of standards and originals. It's easy to see why he has been the benchmark for jazz alto for decades. His swing and inventiveness are nicely showcased as he eases his way through the list of tunes. If one were to buy one or two CD's that best show Phil Woods' ability to create meaningful jazz, this one would have to be high on the list for consideration. Don't miss it!"

http://i67.fastpic.ru/big/2015/1008/58/a343bd06754fc6c0962be8d16db94e58.jpg


Personnel:
Phil Woods - Alto Saxophone
Bob Corwin - Piano
Sonny Dallas - Bass
Nick Stabulas - Drums

tracklist:
01 - In Your Own Sweet Way
02 - Easy Living
03 - I Love You
04 - Squire's Parlor
05 - Wait Till You See Her
06 - Waltz For A Lovely Wife
07 - Like Someone In Love
08 - Gunga Din

Exact Audio Copy V1.1 from 23. June 2015

EAC extraction logfile from 6. October 2015, 18:50

The Phil Woods Quartet / Warm Woods

Used drive : TSSTcorpCDDVDW SE-208DB Adapter: 7 ID: 0

Read mode : Secure
Utilize accurate stream : Yes
Defeat audio cache : Yes
Make use of C2 pointers : No

Read offset correction

: 6
Overread into Lead-In and Lead-Out : No
Fill up missing offset samples with silence : Yes
Delete leading and trailing silent blocks : No
Null samples used in CRC calculations : Yes
Used interface
: Installed external ASPI interface
Gap handling
: Appended to previous track

Used output format : User Defined Encoder
Selected bitrate : 1024 kBit/s
Quality : High
Add ID3 tag : No
Command line compressor : C:\Program Files (x86)\FLAC Frontend\tools\flac.exe
Additional command line options : -8 -V -T "ARTIST=%artist%" -T "TITLE=%title%" -T "ALBUM=%albumtitle%" -T "DATE=%year%" -T "TRACKNUMBER=%tracknr%" -T "TOTALTRACKS=%numtracks%" -T "GENRE=%genre%" -T "ALBUMARTIST=%albumartist%" -T "ALBUM ARTIST=%albumartist%" -T "COMMENT=EAC Secure Mode, Test & Copy, AccurateRip, FLAC -8" %source%

TOC of the extracted CD Track | Start | Length | Start sector | End sector
--1 | 0:00.00 | 8:05.17 | 0 | 36391 2 | 8:05.17 | 4:55.28 | 36392 | 58544 3 | 13:00.45 | 4:50.50 | 58545 | 80344 4 | 17:51.20 | 5:40.50 | 80345 | 105894 5 | 23:31.70 | 6:06.27 | 105895 | 133371 6 | 29:38.22 | 4:05.23 | 133372 | 151769 7 | 33:43.45 | 6:12.20 | 151770 | 179689 8 | 39:55.65 | 7:02.47 | 179690 | 211386

Track 1 Filename M:\_EAC\Phil Woods - Warm Woods (1957) [FLAC] {2014 Japan Jazz Collection 1000 Columbia-RCA Series}\01 - In Your Own Sweet Way.wav Pre-gap length 0:00:02.00 Peak level 100.0 %
Extraction speed 1.1 X
Track quality 100.0 %
Test CRC 56098D55
Copy CRC 56098D55
Cannot be verified as accurate (confidence 2) [4289A1B9], AccurateRip returned [0CA0AB2B] (AR v2)
Copy OK

Track 2 Filename M:\_EAC\Phil Woods - Warm Woods (1957) [FLAC] {2014 Japan Jazz Collection 1000 Columbia-RCA Series}\02 - Easy Living.wav Pre-gap length 0:00:02.17 Peak level 100.0 %
Extraction speed 1.2 X
Track quality 100.0 %
Test CRC 5B603157
Copy CRC 5B603157
Cannot be verified as accurate (confidence 2) [45E72109], AccurateRip returned [A05C7271] (AR v2)
Copy OK

Track 3 Filename M:\_EAC\Phil Woods - Warm Woods (1957) [FLAC] {2014 Japan Jazz Collection 1000 Columbia-RCA Series}\03 - I Love You.wav Pre-gap length 0:00:02.55 Peak level 100.0 %
Extraction speed 1.3 X
Track quality 100.0 %
Test CRC ECFDCF05
Copy CRC ECFDCF05
Cannot be verified as accurate (confidence 2) [53439135], AccurateRip returned [4D875DB7] (AR v2)
Copy OK

Track 4 Filename M:\_EAC\Phil Woods - Warm Woods (1957) [FLAC] {2014 Japan Jazz Collection 1000 Columbia-RCA Series}\04 - Squire's Parlor.wav Pre-gap length 0:00:02.38 Peak level 100.0 %
Extraction speed 1.4 X
Track quality 100.0 %
Test CRC 26D765C4
Copy CRC 26D765C4
Cannot be verified as accurate (confidence 2) [4119530E], AccurateRip returned [581A27D3] (AR v2)
Copy OK

Track 5 Filename M:\_EAC\Phil Woods - Warm Woods (1957) [FLAC] {2014 Japan Jazz Collection 1000 Columbia-RCA Series}\05 - Wait Till You See Her.wav Pre-gap length 0:00:03.60 Peak level 100.0 %
Extraction speed 1.5 X
Track quality 100.0 %
Test CRC 5C2449AA
Copy CRC 5C2449AA
Cannot be verified as accurate (confidence 2) [0363C81A], AccurateRip returned [990077F1] (AR v2)
Copy OK

Track 6 Filename M:\_EAC\Phil Woods - Warm Woods (1957) [FLAC] {2014 Japan Jazz Collection 1000 Columbia-RCA Series}\06 - Waltz For A Lovely Wife.wav Pre-gap length 0:00:02.67 Peak level 100.0 %
Extraction speed 1.5 X
Track quality 100.0 %
Test CRC 40A5A956
Copy CRC 40A5A956
Cannot be verified as accurate (confidence 2) [1D99C21A], AccurateRip returned [3E458F34] (AR v2)
Copy OK

Track 7 Filename M:\_EAC\Phil Woods - Warm Woods (1957) [FLAC] {2014 Japan Jazz Collection 1000 Columbia-RCA Series}\07 - Like Someone In Love.wav Pre-gap length 0:00:02.40 Peak level 99.7 %
Extraction speed 1.7 X
Track quality 100.0 %
Test CRC B48BD9CA
Copy CRC B48BD9CA
Cannot be verified as accurate (confidence 2) [EE7B4721], AccurateRip returned [62096405] (AR v2)
Copy OK

Track 8 Filename M:\_EAC\Phil Woods - Warm Woods (1957) [FLAC] {2014 Japan Jazz Collection 1000 Columbia-RCA Series}\08 - Gunga Din.wav Pre-gap length 0:00:02.23 Peak level 100.0 %
Extraction speed 1.6 X
Track quality 99.9 %
Test CRC 8F14A0C9
Copy CRC 8F14A0C9
Cannot be verified as accurate (confidence 2) [C2BCFFB0], AccurateRip returned [6BFC8D8E] (AR v2)
Copy OK

No tracks could be verified as accurate
You may have a different pressing from the one(s) in the database

No errors occurred

End of status report

==== Log checksum FB2C4C99C412BBDD294BC642C93F2E8159D308C9DA750A435F916454592E5D24 ====

http://i67.fastpic.ru/big/2015/1008/d2/e3cde7738d80501ef921061b047f99d2.jpg

http://i67.fastpic.ru/big/2015/1008/d9/c333d0cb09352ba958e818d837c1cbd9.jpg






NEXT -> More 2014 Japan Jazz Collection 1000 Columbia-RCA Series...
DOWNLOAD LINKS:
Buy Premium To Support Me & Get Resumable Support & Max Speed


Links are Interchangeable - No Password - Single Extraction

 
 
 
Dear visitor, you went to the site as an unregistered user. We encourage you to register or enter the site under your name.
 
   
 
 (Votes #: 0)