2013Zone For Latest Downloads

 
     
 
Legal Downloads » Music » Lenny Kravitz - Live Just Let Go (2015) [BDRip 1080p]
Menu
Home Applications
Games Movies
Music TV Shows
Torrents Graphics

Sitemap

RSS
 
Advanced Search
Last News
Site Info
Top Contributors:
  1    supper88 32766
  2    admin 32671
  3    Whisky 10080
  4    Shark_ 8911
  5    creativelivenew 8706
  6    whathesupa 2799
  7    candymypost 840
  8    hvnteam 629
  9    vuong87 3


Articles:
  This Hour: 0
  Today: 0
  This Month: 59
  All Time: 515636


Torrents:
  Today: 0
  Yesterday: 0
  All Time: 156702


Membership:
  Registered Today :0
  This Hour:0
  This Month:0
  Total:14
  Banned:1

{online}
{inform_torrent}
Friend:
We Recomend
Trend
Trend

Search In Site

Music : Lenny Kravitz - Live Just Let Go (2015) [BDRip 1080p]
 
http://i73.fastpic.ru/big/2015/1031/17/aed8231e9d7b888b03581e8271be3d17.jpg

Lenny Kravitz - Live Just Let Go (2015)
BDRip 1080p | MKV | 9195 kbps, 1920x808 (2.40:1) at 29.970 fps, AVC ([email protected]) | 7.6 GB
Audio: 1509 kbps, 48 kHz, 16 bits, 6 channels, DTS | Length: 01:42:00
Genre: Rock | Nitroflare/Uploadable/Filefactory

"Lenny Kravitz is turning everyone's attention back to the music he makes on stage with the October 23rd release of Let It Go, a live DVD, Blu-ray and digital download.
Along with live performances from Kravitz and his band, Just Let Go will feature interviews and rehearsal footage.
"I am a solo artist, but Just Let Go reflects on the relationship with my band and the camaraderie that develops between us while out on the road," Kravitz tells Billboard. "The film takes a deeper look into what it's like to be on tour and also gives an intimate perspective into my life with the band, both on and off stage."
According to Billboard, Just Let Go includes live performances of 12 tracks, including "Are You Gonna Go My Way," "Fly Away" and "Strut," the title track from Kravtiz's latest album. Just Let Go was filmed on Kravitz's 2014 European tour in support of Strut, which means his now-infamous ripped-pants show in Sweden earlier this month won't be included in the movie."


http://i66.fastpic.ru/big/2015/1031/d7/f1bbd89c6f8feec121bb7fc41e2ea9d7.jpg


Tracklist
Fly Away
Dirty White Boots
American Woman
Dancin' ?til Dawn
Strut
It Ain't Over ?til It's Over
New York City
The Chamber
Sister
Dig In
Let Love Rule
Are You Gonna Go My Way

General
Unique ID
: 227979910936680799978320266942250091398 (0xAB83556E9E945143942946FF07860386)
Complete name : C:\Users\ggu\Desktop\ggu\Lenny.Kravitz.Live.Just.Let.Go.2015.1080p.MBluRay.x264-TREBLE\lk.mkv
Format
: Matroska
Format version : Version 4 / Version 2
File size
: 7.65 GiB
Duration
: 1h 42mn
Overall bit rate : 10.7 Mbps
Encoded date : UTC 2015-10-27 20:31:55
Writing application

: mkvmerge v8.5.1 ('Where you lead I will follow') 64bit
Writing library : libebml v1.3.3 + libmatroska v1.4.4
DURATION
: 01:42:10.190000000
NUMBER_OF_FRAMES : 648
NUMBER_OF_BYTES : 23587
_STATISTICS_WRITING_APP : mkvmerge v8.5.1 ('Where you lead I will follow') 64bit
_STATISTICS_WRITING_DATE_UTC : 2015-10-27 20:31:55
_STATISTICS_TAGS : BPS DURATION NUMBER_OF_FRAMES NUMBER_OF_BYTES

Video
ID : 1
Format
: AVC
Format/Info
: Advanced Video Codec
Format profile : [email protected]
Format settings, CABAC : Yes
Format settings, ReFrames : 5 frames
Codec ID
: V_MPEG4/ISO/AVC
Duration
: 1h 42mn
Bit rate
: 9 195 Kbps
Width
: 1 920 pixels
Height
: 808 pixels
Display aspect ratio : 2.40:1
Frame rate mode : Constant
Frame rate
: 29.970 fps
Color space
: YUV
Chroma subsampling

: 4:2:0
Bit depth
: 8 bits
Scan type
: Progressive
Bits/(Pixel*Frame)

: 0.198
Stream size
: 6.42 GiB (84%)
Title
: English
Writing library : x264 core 148 r2638 7599210
Encoding settings: cabac=1 / ref=5 / deblock=1:0:0 / analyse=0x3:0x113 / me=umh / subme=8 / psy=1 / psy_rd=1.00:0.00 / mixed_ref=1 / me_range=16 / chroma_me=1 / trellis=1 / 8x8dct=1 / cqm=0 / deadzone=21,11 / fast_pskip=1 / chroma_qp_offset=-2 / threads=12 / lookahead_threads=2 / sliced_threads=0 / nr=0 / decimate=1 / interlaced=0 / bluray_compat=0 / constrained_intra=0 / bframes=3 / b_pyramid=2 / b_adapt=2 / b_bias=0 / direct=3 / weightb=1 / open_gop=0 / weightp=2 / keyint=240 / keyint_min=24 / scenecut=40 / intra_refresh=0 / rc_lookahead=50 / rc=2pass / mbtree=1 / bitrate=9195 / ratetol=1.0 / qcomp=0.60 / qpmin=0 / qpmax=69 / qpstep=4 / cplxblur=20.0 / qblur=0.5 / ip_ratio=1.40 / aq=1:1.00
Language
: English
Default
: Yes
Forced
: No
DURATION
: 01:42:19.033000000
NUMBER_OF_FRAMES : 183987
NUMBER_OF_BYTES : 7056204034
_STATISTICS_WRITING_APP : mkvmerge v8.5.1 ('Where you lead I will follow') 64bit
_STATISTICS_WRITING_DATE_UTC : 2015-10-27 20:31:55
_STATISTICS_TAGS : BPS DURATION NUMBER_OF_FRAMES NUMBER_OF_BYTES

Audio
ID : 2
Format
: DTS
Format/Info
: Digital Theater Systems
Mode
: 16
Format settings, Endianness : Big
Codec ID
: A_DTS
Duration
: 1h 42mn
Bit rate mode : Constant
Bit rate
: 1 509 Kbps
Channel(s)
: 6 channels
Channel positions: Front: L C R, Side: L R, LFE
Sampling rate : 48.0 KHz
Bit depth
: 16 bits
Compression mode : Lossy
Stream size
: 1.08 GiB (14%)
Title
: English
Language
: English
Default
: Yes
Forced
: No

Text
ID : 3
Format
: UTF-8
Codec ID
: S_TEXT/UTF8
Codec ID/Info : UTF-8 Plain Text
Title
: English
Default
: Yes
Forced
: No

Menu
00:00:00.000 : en:00:00:00.000
00:01:28.588 : en:00:01:28.588
00:05:52.252 : en:00:05:52.252
00:09:26.966 : en:00:09:26.966
00:13:28.441 : en:00:13:28.441
00:17:38.324 : en:00:17:38.324
00:24:10.049 : en:00:24:10.049
00:32:19.137 : en:00:32:19.137
00:35:24.389 : en:00:35:24.389
00:40:02.467 : en:00:40:02.467
00:44:35.139 : en:00:44:35.139
00:45:00.631 : en:00:45:00.631
00:50:06.437 : en:00:50:06.437
01:00:11.508 : en:01:00:11.508
01:05:15.178 : en:01:05:15.178
01:10:28.024 : en:01:10:28.024
01:12:49.665 : en:01:12:49.665
01:17:25.975 : en:01:17:25.975
01:20:56.785 : en:01:20:56.785
01:33:30.004 : en:01:33:30.004
01:34:33.668 : en:01:34:33.668

Thanks to the original uploader
DOWNLOAD LINKS:
Buy Premium To Support Me & Get Resumable Support & Max Speed


Links are Interchangeable - No Password - Single Extraction

 
 
 
Dear visitor, you went to the site as an unregistered user. We encourage you to register or enter the site under your name.
 
   
 
 (Votes #: 0)