Advertise
onlinemovies


Pat Metheny & Lyle Mays - As Falls Wichita, So Falls Wichita Falls (1981) {ECM 1190}

Published On: 27-11-2015, 21:33
http://i74.fastpic.ru/big/2015/1126/5b/3890a852d7d69aec48e2555830458e5b.jpg

Pat Metheny & Lyle Mays - As Falls Wichita, So Falls Wichita Falls (1981) {ECM 1190}
EAC 0.99pb4 | FLAC tracks level 8 | Cue+Log+M3U | Full Scans 300dpi | 228MB + 5% Recovery
Genre: Fusion

"Like the echo of a grand landscape, Metheny and Mays create an atmospheric meditation on traveling across the great open expanse of America As Falls Wichita, So Falls Wichita Falls. By turns introspective and hymn-like, soaring and transcendent, the music resonates with a rural spirit, to which the Brazilian percussion of Nana Vasconcelos brings a more universal feel. Both "It's For You" and the epic title track evoke sonic vistas that touch a nerve with their layered keyboards and guitars. "Ozark" is a dynamic track featuring piano propelled by gentle percussion, while "September Fifteenth" is a quiet and deeply moving dedication to pianist Bill Evans. "Estupenda Graca" is like a gentle prayer sung both as closure, and in anticipation of the travels to come."

Track List
01. As Falls Wichita, So Falls Wichita Falls 20:42
02. Ozark 4:00
03. September Fifteenth (dedicated to Bill Evans) 7:42
04. "It's For You" 8:17
05. Estupenda Graca 2:41

musicians
Pat Metheny - acoustic & electric 6- & 12-string guitars, bass
Lyle Mays - piano, organ, synthesizer, autoharp
Nana Vasconcelos - drums, berimbau, percussion, vocals

Produced by Manfred Eicher

Exact Audio Copy V0.99 prebeta 4 from 23. January 2008

EAC extraction logfile from 29. August 2008, 23:00

Pat Metheny & Lyle Mays / As Falls Wichita, So Falls Wichita Falls

Used drive : PLEXTOR CD-R PX-W5224A Adapter: 1 ID: 1

Read mode : Secure
Utilize accurate stream : Yes
Defeat audio cache : Yes
Make use of C2 pointers : No

Read offset correction

: 30
Overread into Lead-In and Lead-Out : Yes
Fill up missing offset samples with silence : Yes
Delete leading and trailing silent blocks : No
Null samples used in CRC calculations : Yes
Used interface
: Installed external ASPI interface
Gap handling
: Appended to previous track

Used output format : Internal WAV Routines
Sample format : 44.100 Hz; 16 Bit; Stereo

TOC of the extracted CD Track | Start | Length | Start sector | End sector
--1 | 0:00.33 | 20:45.37 | 33 | 93444 2 | 20:45.70 | 4:03.55 | 93445 | 111724 3 | 24:49.50 | 7:45.25 | 111725 | 146624 4 | 32:35.00 | 8:20.20 | 146625 | 184144 5 | 40:55.20 | 2:41.38 | 184145 | 196257

Track 1 Filename C:\DAE\Pat Metheny & Lyle Mays - As Falls Wichita, So Falls Wichita Falls (ECM 1190)\01 - As Falls Wichita, So Falls Wichita Falls.wav Pre-gap length 0:00:02.33 Peak level 92.7 %
Track quality 100.0 %
Test CRC 8271BE03
Copy CRC 8271BE03
Accurately ripped (confidence 5) [7379D343]
Copy OK

Track 2 Filename C:\DAE\Pat Metheny & Lyle Mays - As Falls Wichita, So Falls Wichita Falls (ECM 1190)\02 - Ozark.wav Pre-gap length 0:00:03.00 Peak level 88.0 %
Track quality 99.9 %
Test CRC 65B09F7E
Copy CRC 65B09F7E
Accurately ripped (confidence 5) 50EE90F
Copy OK

Track 3 Filename C:\DAE\Pat Metheny & Lyle Mays - As Falls Wichita, So Falls Wichita Falls (ECM 1190)\03 - September Fifteenth (dedicated to Bill Evans).wav Pre-gap length 0:00:03.00 Peak level 85.8 %
Track quality 100.0 %
Test CRC 6F037978
Copy CRC 6F037978
Accurately ripped (confidence 5) [37F28CA2]
Copy OK

Track 4 Filename C:\DAE\Pat Metheny & Lyle Mays - As Falls Wichita, So Falls Wichita Falls (ECM 1190)\04 - ''It's For You''.wav Pre-gap length 0:00:03.00 Peak level 89.8 %
Track quality 100.0 %
Test CRC 2B8AAFE3
Copy CRC 2B8AAFE3
Accurately ripped (confidence 5) [01DBB7F1]
Copy OK

Track 5 Filename C:\DAE\Pat Metheny & Lyle Mays - As Falls Wichita, So Falls Wichita Falls (ECM 1190)\05 - Estupenda GraŠ·a.wav Pre-gap length 0:00:03.00 Peak level 55.1 %
Track quality 100.0 %
Test CRC ECD4DCFC
Copy CRC ECD4DCFC
Accurately ripped (confidence 4) [12F4A915]
Copy OK

All tracks accurately ripped

No errors occurred

End of status report

Analyzed: Pat Metheny & Lyle Mays / As Falls Wichita, So Falls Wichita Falls

DR Peak RMS Duration Track

DR15 -0.65 dB -21.21 dB 20:45 01-As Falls Wichita, So Falls Wichita Falls
DR14 -1.11 dB -18.73 dB 4:04 02-Ozark
DR15 -1.33 dB -22.67 dB 7:45 03-September Fifteenth (dedicated to Bill Evans)
DR11 -0.93 dB -16.39 dB 8:20 04-"It's For You"
DR11 -5.16 dB -22.16 dB 2:42 05-Estupenda Graça

Number of tracks: 5
Official DR value: DR13

Samplerate: 44100 Hz
Channels: 2
Bits per sample: 16
Bitrate: 621 kbps
Codec: FLAC

http://i74.fastpic.ru/big/2015/1126/c5/d2c5aab61e2b361d1cf5ff44eef0edc5.jpg

http://i67.fastpic.ru/big/2015/1126/57/f503f758d9c5950188ba6b16955df657.jpg

http://i76.fastpic.ru/big/2015/1126/14/ebb8e290b391f1e2ac4b794f5f466d14.jpg

Rip by Qfactor


DOWNLOAD LINKS:
Buy Premium To Support Me & Get Resumable Support & Max Speed


Links are Interchangeable - No Password - Single Extraction

Friends: Free Full Download | Torrent Magnet Download | Graphics Download | Watch Online Movies
Dear visitor, you are browsing our website as Guest.
We strongly recommend you to register and login to view hidden contents.

Comments:

Add Comments
 

This site doesn't store any files on its server. We only index and link to content provided by other sites.