2013Zone For Latest Downloads

 
     
 
Legal Downloads » Music » Jim Hall - Dialogues (1995)
Menu
Home Applications
Games Movies
Music TV Shows
Torrents Graphics

Sitemap

RSS
 
Advanced Search
Last News
Site Info
Top Contributors:
  1    supper88 32766
  2    admin 32671
  3    Whisky 10080
  4    Shark_ 8911
  5    creativelivenew 8706
  6    whathesupa 2799
  7    candymypost 840
  8    hvnteam 629
  9    vuong87 3


Articles:
  This Hour: 0
  Today: 0
  This Month: 58
  All Time: 515616


Torrents:
  Today: 0
  Yesterday: 0
  All Time: 156702


Membership:
  Registered Today :0
  This Hour:0
  This Month:0
  Total:14
  Banned:1

{online}
{inform_torrent}
Friend:
We Recomend
Trend
Trend
Ad1

Search In Site

Music : Jim Hall - Dialogues (1995)
 
http://i78.fastpic.ru/big/2016/0510/bf/6a7e42bc12dc18098ee6d1a7968453bf.jpg

Jim Hall - Dialogues (1995)
EAC Rip | FLAC with CUE and log | scans | 171 mb
MP3 CBR 320kbps | RAR | 285 mb
Genre: jazz, smooth jazz

Dialogues is the 1995 album by Jim Hall. This was released by the Telarc label and features help from Joe Lovano, Tom Harrell, Bill Frisell, Mike Stern and three other people.
http://i78.fastpic.ru/big/2016/0510/62/8db6149d7ae36d95c811a7dc81ca1e62.jpg

1. Frisell Frazzle (4:47)
2. Simple Things (6:26)
3. Calypso Joe (5:17)
4. Bon Ami (6:37)
5. Dream Steps (4:45)
6. Snowbound (6:19)
7. Stern Stuff (5:12)
8. Dialogue (4:34)
9. Uncle Ed (5:03)
10. Skylark (5:35)

Jim Hall-guitar
Bill Frisell-guitar (tracks 1, 2)
Mike Stern-guitar (tracks 7, 9)
Joe Lovano-tenor saxophone (tracks 3, 4)
Scott Colley-bass (tracks 1-4, 7, 10)
Andy Watson-drums (tracks 1-5, 7, 9-10)
Gil Goldstein-accordion (tracks 6, 8)
Tom Harrell-Flugelhorn (tracks 5, 10)

Produced by Jane Hall and John Snyder
Engineered by Jack Renner and Michael Bishop
Executive Producer-Robert Woods
http://i80.fastpic.ru/big/2016/0510/b6/c5b0f8762e3ff61f74dc8afca0e14cb6.jpg
EAC Log Exact Audio Copy V1.0 beta 3 from 29. August 2011

EAC extraction logfile from 22. September 2013, 8:46

Jim Hall / Dialogues

Used drive : PLDS DVD+-RW DH-16ABS Adapter: 2 ID: 0

Read mode : Secure
Utilize accurate stream : Yes
Defeat audio cache : No
Make use of C2 pointers : No

Read offset correction

: 6
Overread into Lead-In and Lead-Out : No
Fill up missing offset samples with silence : Yes
Delete leading and trailing silent blocks : No
Null samples used in CRC calculations : Yes
Used interface
: Native Win32 interface for Win NT & 2000
Gap handling
: Not detected, thus appended to previous track

Used output format : Internal WAV Routines
Sample format : 44.100 Hz; 16 Bit; Stereo

TOC of the extracted CD Track | Start | Length | Start sector | End sector
--1 | 0:00.00 | 4:49.63 | 0 | 21737 2 | 4:49.63 | 6:28.37 | 21738 | 50874 3 | 11:18.25 | 5:20.00 | 50875 | 74874 4 | 16:38.25 | 6:40.45 | 74875 | 104919 5 | 23:18.70 | 4:48.50 | 104920 | 126569 6 | 28:07.45 | 6:22.43 | 126570 | 155262 7 | 34:30.13 | 5:15.02 | 155263 | 178889 8 | 39:45.15 | 4:37.10 | 178890 | 199674 9 | 44:22.25 | 5:06.48 | 199675 | 222672
10 | 49:28.73 | 5:34.27 | 222673 | 247749

Track 1 Filename C:\Users\Stan\Music\My Music\ncoming\Lossless\Jim Hall - 1995 Dialogues\01 Frissell Frazzle.wav Peak level 100.0 %
Extraction speed 6.4 X
Track quality 99.9 %
Copy CRC E305BF66
Accurately ripped (confidence 2) [9951B2D2] (AR v1)
Copy OK

Track 2 Filename C:\Users\Stan\Music\My Music\ncoming\Lossless\Jim Hall - 1995 Dialogues\02 Simple Things.wav Peak level 93.3 %
Extraction speed 7.4 X
Track quality 100.0 %
Copy CRC BE136DCD
Accurately ripped (confidence 2) EF48B32 (AR v1)
Copy OK

Track 3 Filename C:\Users\Stan\Music\My Music\ncoming\Lossless\Jim Hall - 1995 Dialogues\03 Calypso Joe.wav Peak level 86.6 %
Extraction speed 7.8 X
Track quality 99.9 %
Copy CRC B3EA7022
Accurately ripped (confidence 2) [57EB9D67] (AR v1)
Copy OK

Track 4 Filename C:\Users\Stan\Music\My Music\ncoming\Lossless\Jim Hall - 1995 Dialogues\04 Bon Ami.wav Peak level 76.9 %
Extraction speed 4.9 X
Track quality 100.0 %
Copy CRC 21D1FB47
Accurately ripped (confidence 2) [3C6B9788] (AR v1)
Copy OK

Track 5 Filename C:\Users\Stan\Music\My Music\ncoming\Lossless\Jim Hall - 1995 Dialogues\05 Dream Steps.wav Peak level 94.3 %
Extraction speed 5.2 X
Track quality 100.0 %
Copy CRC DE622E13
Accurately ripped (confidence 2) [9A8B6979] (AR v1)
Copy OK

Track 6 Filename C:\Users\Stan\Music\My Music\ncoming\Lossless\Jim Hall - 1995 Dialogues\06 Snowbound.wav Peak level 56.8 %
Extraction speed 5.6 X
Track quality 100.0 %
Copy CRC 4E6759D2
Accurately ripped (confidence 2) CDC6E87 (AR v1)
Copy OK

Track 7 Filename C:\Users\Stan\Music\My Music\ncoming\Lossless\Jim Hall - 1995 Dialogues\07 Stern Stuff.wav Peak level 95.5 %
Extraction speed 5.8 X
Track quality 99.9 %
Copy CRC CB5BD2AB
Accurately ripped (confidence 2) [2669F2D9] (AR v1)
Copy OK

Track 8 Filename C:\Users\Stan\Music\My Music\ncoming\Lossless\Jim Hall - 1995 Dialogues\08 Dialogue.wav Peak level 90.9 %
Extraction speed 6.1 X
Track quality 100.0 %
Copy CRC 9F29AFD4
Accurately ripped (confidence 2) [686252A8] (AR v1)
Copy OK

Track 9 Filename C:\Users\Stan\Music\My Music\ncoming\Lossless\Jim Hall - 1995 Dialogues\09 Uncle Ed.wav Peak level 100.0 %
Extraction speed 6.3 X
Track quality 100.0 %
Copy CRC 222143F5
Accurately ripped (confidence 2) [63498717] (AR v1)
Copy OK

Track 10 Filename C:\Users\Stan\Music\My Music\ncoming\Lossless\Jim Hall - 1995 Dialogues\10 Skylark.wav Peak level 85.6 %
Extraction speed 6.6 X
Track quality 100.0 %
Copy CRC 4FBE6A10
Accurately ripped (confidence 2) [FC35FBC5] (AR v1)
Copy OK

All tracks accurately ripped

No errors occurred

End of status report
DOWNLOAD LINKS:
Buy Premium To Support Me & Get Resumable Support & Max Speed


Links are Interchangeable - No Password - Single Extraction



Ad2

 
 
 
Dear visitor, you went to the site as an unregistered user. We encourage you to register or enter the site under your name.
 
   
 
 (Votes #: 0)