2013Zone For Latest Downloads

 
     
 
Legal Downloads » TV Shows » One Winter Story (2006)
Menu
Home Applications
Games Movies
Music TV Shows
Torrents Graphics

Sitemap

RSS
 
Advanced Search
Last News
Site Info
Top Contributors:
  1    supper88 32766
  2    admin 32636
  3    Whisky 10080
  4    Shark_ 8911
  5    creativelivenew 8706
  6    whathesupa 2799
  7    candymypost 840
  8    hvnteam 629
  9    vuong87 3


Articles:
  This Hour: 0
  Today: 0
  This Month: 30
  All Time: 515723


Torrents:
  Today: 0
  Yesterday: 0
  All Time: 156682


Membership:
  Registered Today :0
  This Hour:0
  This Month:0
  Total:14
  Banned:1

{online}
{inform_torrent}
Friend:
We Recomend
Trend
Trend
onlinemovies

Search In Site

TV Shows : One Winter Story (2006)
 
http://i59.fastpic.ru/big/2015/0415/ce/8e9c901131e1bc381789cde759f10ece.jpg

One Winter Story (2006)
HDTV | 1280x720 | MKV/x264 @ 2097 Kbps | 55mn | Audio: English AC3 192 kbps, 2 channels | Subs: None | 932 MB
Genre: Documentary

Examines the life and legacy of Sarah Gerhardt. In February 1999, Sarah became the first woman to surf Maverick's, the monstrous wave that breaks in the freezing waters off Half Moon Bay in Northern California. Over the years, Maverick's has become the place where big wave surfers come to test their skills in some of the harshest surfing conditions in the world. Sarah's journey to Maverick's was anything but easy.
Surfing became her escape from the hardships of home and faith became the guiding force in her life. One Winter Story traces Sarah's strength and determination to their roots in a beautiful montage of film, voice, memory and emotion. Her journey takes viewers from one fantastic surfing local to another-from the frigid and challenging conditions off the coast of Central California, to the massive walls of water on the Outer Reefs of Hawaii, and finally, to the ominous surfing conditions at Maverick's in Northern California. Through it all, we feel Sarah's love for this sometimes very dangerous sport. We share her fear and frustration, and then her determination to plunge into a traditionally male-dominated arena. Finally, we come to understand how her family and her faith in God help her take on the obstacles in her life.

More info

Video
ID
: 1
Format : AVC
Format/Info

: Advanced Video Codec
Format profile : [email protected]
Format settings, CABAC : Yes
Format settings, ReFrames : 9 frames
Codec ID : V_MPEG4/ISO/AVC
Duration : 55mn 47s
Bit rate : 2 097 Kbps
Width : 708 pixels
Height : 478 pixels
Display aspect ratio : 4:3
Original display aspect ratio : 4:3
Frame rate

: 23.976 fps
Color space

: YUV
Chroma subsampling : 4:2:0
Bit depth: 8 bits
Scan type: Progressive
Bits/(Pixel*Frame) : 0.258
Stream size

: 837 MiB (90%)
Writing library : x264 core 142 r2479 dd79a61
Encoding settings : cabac=1 / ref=9 / deblock=1:-3:-3 / analyse=0x3:0x133 / me=umh / subme=9 / psy=1 / psy_rd=1.00:0.00 / mixed_ref=1 / me_range=24 / chroma_me=1 / trellis=2 / 8x8dct=1 / cqm=0 / deadzone=21,11 / fast_pskip=0 / chroma_qp_offset=-2 / threads=12 / lookahead_threads=1 / sliced_threads=0 / nr=0 / decimate=1 / interlaced=0 / bluray_compat=0 / constrained_intra=0 / bframes=6 / b_pyramid=2 / b_adapt=2 / b_bias=0 / direct=3 / weightb=1 / open_gop=0 / weightp=2 / keyint=240 / keyint_min=24 / scenecut=40 / intra_refresh=0 / rc_lookahead=60 / rc=crf / mbtree=1 / crf=21.0 / qcomp=0.60 / qpmin=0 / qpmax=69 / qpstep=4 / ip_ratio=1.40 / aq=1:1.00
Color primaries : BT.601-6 525, BT.1358 525, BT.1700 NTSC, SMPTE 170M
Transfer characteristics : BT.709-5, BT.1361
Matrix coefficients : BT.601-6 525, BT.1358 525, BT.1700 NTSC, SMPTE 170M

Audio
ID
: 2
Format : AC-3
Format/Info

: Audio Coding 3
Mode extension : CM (complete main)
Codec ID : A_AC3
Duration : 55mn 47s
Bit rate mode : Constant
Bit rate : 192 Kbps
Channel(s)

: 2 channels
Channel positions : Front: L R
Sampling rate : 48.0 KHz
Bit depth: 16 bits
Compression mode : Lossy
Stream size

: 76.6 MiB (8%)
Title : Stereo
Language : English

Menu
00:00:00.000 : :Chapter 1
00:04:23.388 : :Chapter 2
00:10:19.076 : :Chapter 3
00:15:16.248 : :Chapter 4
00:21:02.344 : :Chapter 5
00:26:50.692 : :Chapter 6
00:31:24.799 : :Chapter 7
00:34:59.514 : :Chapter 8
00:43:00.995 : :Chapter 9
00:47:16.542 : :Chapter 10
00:49:50.988 : :Chapter 11
00:53:39.090 : :Chapter 12

http://i60.fastpic.ru/big/2015/0415/b5/adabd1eaadfc1e0fb862cf98e077e8b5.jpg


DOWNLOAD LINKS:
Buy Premium To Support Me & Get Resumable Support & Max Speed


Links are Interchangeable - No Password - Single Extraction

 
 
 
Dear visitor, you went to the site as an unregistered user. We encourage you to register or enter the site under your name.
 
   
 
 (Votes #: 0)