2013Zone For Latest Downloads

 
     
 
Legal Downloads » TV Shows » PBS - Frontline: Secrets, Politics, and Torture (2015)
Menu
Home Applications
Games Movies
Music TV Shows
Torrents Graphics

Sitemap

RSS
 
Advanced Search
Last News
Site Info
Top Contributors:
  1    supper88 32767
  2    admin 32756
  3    Whisky 10081
  4    Shark_ 8911
  5    creativelivenew 8706
  6    whathesupa 2799
  7    candymypost 840
  8    hvnteam 629
  9    vuong87 3


Articles:
  This Hour: 0
  Today: 0
  This Month: 14
  All Time: 515457


Torrents:
  Today: 0
  Yesterday: 0
  All Time: 156743


Membership:
  Registered Today :0
  This Hour:0
  This Month:0
  Total:14
  Banned:1

{online}
{inform_torrent}
Friend:
Full Download Scripts
Torrent Download
Trend
Trend

Search In Site

TV Shows : PBS - Frontline: Secrets, Politics, and Torture (2015)
 

http://i70.fastpic.ru/big/2015/0522/e0/ef177d13ad8476cd2a4b46353b6057e0.jpg
PBS - Frontline: Secrets, Politics, and Torture (2015)
HDTV | 1280x720 | .MKV/AVC @ 2242 Kbps | 53mn 29s | Audio: English AC3 384 kbps, 2 channels | Subs: None | 1.00 GiB
Genre: Documentary

"The dramatic story of the fight over the CIA's controversial interrogation methods, widely criticized as torture. Based on recently declassified documents and interviews with key political leaders and CIA insiders, the film investigates what the CIA did and whether it worked."

General
Unique ID
: 240512172710829393511379777704633378272 (0xB4F0F5A4805B71C4848A05FE1B8525E0)
Complete name : Frontline.US.Politics.Of.Torture.mkv
Format
: Matroska
Format version : Version 2
File size
: 1.00 GiB
Duration
: 53mn 29s
Overall bit rate : 2 680 Kbps

Video
ID : 1
Format
: AVC
Format/Info
: Advanced Video Codec
Format profile : [email protected]
Format settings, CABAC : Yes
Format settings, ReFrames : 5 frames
Codec ID
: V_MPEG4/ISO/AVC
Duration
: 53mn 29s
Bit rate
: 2 242 Kbps
Width
: 1 280 pixels
Height
: 720 pixels
Display aspect ratio : 16:9
Frame rate
: 29.970 fps
Color space
: YUV
Chroma subsampling

: 4:2:0
Bit depth
: 8 bits
Scan type
: Progressive
Bits/(Pixel*Frame)

: 0.081
Stream size
: 858 MiB (84%)
Writing library : x264 core 146 r2538 121396c
Encoding settings: cabac=1 / ref=5 / deblock=1:0:0 / analyse=0x3:0x113 / me=umh / subme=8 / psy=1 / psy_rd=1.00:0.00 / mixed_ref=1 / me_range=16 / chroma_me=1 / trellis=1 / 8x8dct=1 / cqm=0 / deadzone=21,11 / fast_pskip=1 / chroma_qp_offset=-2 / threads=12 / lookahead_threads=2 / sliced_threads=0 / nr=0 / decimate=1 / interlaced=0 / bluray_compat=0 / constrained_intra=0 / bframes=3 / b_pyramid=2 / b_adapt=2 / b_bias=0 / direct=3 / weightb=1 / open_gop=0 / weightp=2 / keyint=300 / keyint_min=29 / scenecut=40 / intra_refresh=0 / rc_lookahead=50 / rc=crf / mbtree=1 / crf=20.0 / qcomp=0.60 / qpmin=0 / qpmax=69 / qpstep=4 / vbv_maxrate=62500 / vbv_bufsize=78125 / crf_max=0.0 / nal_hrd=none / filler=0 / ip_ratio=1.40 / aq=1:1.00
Default
: Yes
Forced
: No

Audio
ID : 2
Format
: AC-3
Format/Info
: Audio Coding 3
Format profile : Dolby Digital
Mode extension : CM (complete main)
Format settings, Endianness : Big
Codec ID
: A_AC3
Duration
: 53mn 29s
Bit rate mode : Constant
Bit rate
: 384 Kbps
Channel(s)
: 2 channels
Channel positions: Front: L R
Sampling rate : 48.0 KHz
Bit depth
: 16 bits
Compression mode : Lossy
Delay relative to video : 56ms
Stream size
: 147 MiB (14%)
Default
: Yes
Forced
: No

Screenshots:

http://i69.fastpic.ru/big/2015/0522/81/0c2a551ecf5f1153a468ab834aeb4181.jpg

http://i71.fastpic.ru/big/2015/0522/b9/945aea4d8024156eeeb9e907b57e73b9.jpg

http://i72.fastpic.ru/big/2015/0522/35/5bc7c5c73400b222a6e371e23a3bb435.jpg


DOWNLOAD LINKS:
Buy Premium To Support Me & Get Resumable Support & Max Speed


Links are Interchangeable - No Password - Single Extraction

PBS - Frontline: Secrets, Politics, and Torture (2015) Fast Download



 
 
 
Dear visitor, you went to the site as an unregistered user. We encourage you to register or enter the site under your name.
 
   
 
 (Votes #: 0)