2013Zone For Latest Downloads

 
     
 
Legal Downloads » TV Shows » Discovery Channel - Top Five Eaten Alive (2015)
Menu
Home Applications
Games Movies
Music TV Shows
Torrents Graphics

Sitemap

RSS
 
Advanced Search
Last News
Site Info
Top Contributors:
  1    supper88 32766
  2    admin 32630
  3    Whisky 10080
  4    Shark_ 8911
  5    creativelivenew 8706
  6    whathesupa 2799
  7    candymypost 840
  8    hvnteam 629
  9    vuong87 3


Articles:
  This Hour: 14
  Today: 14
  This Month: 44
  All Time: 515735


Torrents:
  Today: 0
  Yesterday: 0
  All Time: 156682


Membership:
  Registered Today :0
  This Hour:0
  This Month:0
  Total:14
  Banned:1

{online}
{inform_torrent}
Friend:
We Recomend
Trend
Trend
onlinemovies

Search In Site

TV Shows : Discovery Channel - Top Five Eaten Alive (2015)
 

http://i72.fastpic.ru/big/2015/0708/9f/2ee42230ba981d9cc5f481fa43af7d9f.jpg
Discovery Channel - Top Five Eaten Alive (2015)
HDTV | 1280x720 | .MKV/AVC @ 3285 Kbps | 42mn 31s | Audio: English AC3 384 kbps, 6 channels | Subs: None | 1.11 GiB
Genre: Documentary

"'Top 5 Eaten Alive', part of Discovery Channel's Shark Month, focuses on five dramatic shark encounter survival stories told by the victims themselves. Witness what it was like to confront this underwater predator and be lucky enough to live and tell the tale. Find out what happens when a diver was trapped in the mouth of a Great White and meet the woman caught in a dramatic struggle between a shark and her rescue crew. Also featured - the tale of a shark scientist who had his leg bitten off; a fisherman has his arm bitten off, and a woman who was pulled underwater but managed to fend off the shark. You will be on the edge of your seat as each case reveals what caused these creatures to attack."

General
Unique ID
: 241390479039219888458238438736315520096 (0xB59A1D7CE7E2B1D7A3202FB3F9AF9460)
Complete name : discovery.channel.top.five.eaten.alive.mkv
Format
: Matroska
Format version : Version 4 / Version 2
File size
: 1.11 GiB
Duration
: 42mn 31s
Overall bit rate : 3 744 Kbps

Video
ID : 1
Format
: AVC
Format/Info
: Advanced Video Codec
Format profile : [email protected]
Format settings, CABAC : Yes
Format settings, ReFrames : 5 frames
Codec ID
: V_MPEG4/ISO/AVC
Duration
: 42mn 31s
Bit rate
: 3 285 Kbps
Width
: 1 280 pixels
Height
: 720 pixels
Display aspect ratio : 16:9
Frame rate
: 29.970 fps
Color space
: YUV
Chroma subsampling

: 4:2:0
Bit depth
: 8 bits
Scan type
: Progressive
Bits/(Pixel*Frame)

: 0.119
Stream size
: 999 MiB (88%)
Writing library : x264 core 146 r2538 121396c
Encoding settings: cabac=1 / ref=5 / deblock=1:0:0 / analyse=0x3:0x113 / me=umh / subme=8 / psy=1 / psy_rd=1.00:0.00 / mixed_ref=1 / me_range=16 / chroma_me=1 / trellis=1 / 8x8dct=1 / cqm=0 / deadzone=21,11 / fast_pskip=1 / chroma_qp_offset=-2 / threads=12 / lookahead_threads=2 / sliced_threads=0 / nr=0 / decimate=1 / interlaced=0 / bluray_compat=0 / constrained_intra=0 / bframes=3 / b_pyramid=2 / b_adapt=2 / b_bias=0 / direct=3 / weightb=1 / open_gop=0 / weightp=2 / keyint=250 / keyint_min=25 / scenecut=40 / intra_refresh=0 / rc_lookahead=50 / rc=crf / mbtree=1 / crf=21.0 / qcomp=0.60 / qpmin=0 / qpmax=69 / qpstep=4 / ip_ratio=1.40 / aq=1:1.00
Language
: English
Default
: Yes
Forced
: No

Audio
ID : 2
Format
: AC-3
Format/Info
: Audio Coding 3
Mode extension : CM (complete main)
Format settings, Endianness : Big
Codec ID
: A_AC3
Duration
: 42mn 31s
Bit rate mode : Constant
Bit rate
: 384 Kbps
Channel(s)
: 6 channels
Channel positions: Front: L C R, Side: L R, LFE
Sampling rate : 48.0 KHz
Bit depth
: 16 bits
Compression mode : Lossy
Stream size
: 117 MiB (10%)
Language
: English
Default
: Yes
Forced
: No

Text
ID : 3
Format
: UTF-8
Codec ID
: S_TEXT/UTF8
Codec ID/Info : UTF-8 Plain Text
Language
: English
Default
: No
Forced
: No

Screenshots:

http://i69.fastpic.ru/big/2015/0708/09/4b8daf53fbc75f497359449011d44509.jpg

http://i69.fastpic.ru/big/2015/0708/45/b82bc19992fcab1567204150272d1545.jpg


DOWNLOAD LINKS:
Buy Premium To Support Me & Get Resumable Support & Max Speed


Links are Interchangeable - No Password - Single Extraction

 
 
 
Dear visitor, you went to the site as an unregistered user. We encourage you to register or enter the site under your name.
 
   
 
 (Votes #: 0)