2013Zone For Latest Downloads

 
     
 
Legal Downloads » TV Shows » PBS - POV: Web Junkie (2015)
Menu
Home Applications
Games Movies
Music TV Shows
Torrents Graphics

Sitemap

RSS
 
Advanced Search
Last News
Site Info
Top Contributors:
  1    supper88 32766
  2    admin 32693
  3    Whisky 10080
  4    Shark_ 8911
  5    creativelivenew 8706
  6    whathesupa 2799
  7    candymypost 840
  8    hvnteam 629
  9    vuong87 3


Articles:
  This Hour: 0
  Today: 0
  This Month: 30
  All Time: 515561


Torrents:
  Today: 0
  Yesterday: 0
  All Time: 156684


Membership:
  Registered Today :0
  This Hour:0
  This Month:0
  Total:14
  Banned:1

{online}
{inform_torrent}
Friend:
We Recomend
Trend
Trend
Ad1

Search In Site

TV Shows : PBS - POV: Web Junkie (2015)
 

http://i72.fastpic.ru/big/2015/0723/24/907ed19b900a29dfb9727d2ecb4b8424.jpg
PBS - POV: Web Junkie (2015)
HDTV | 1280x720 | .MKV/AVC @ 2135 Kbps | 55mn 40s | Audio: English AC3 384 kbps, 2 channels | Subs: English | 1024 MiB
Genre: Documentary

"Internet addiction has been declared a national health crisis in China, the first country in the world to classify this evolving diagnosis. Web Junkie follows the treatment of three Chinese teenagers, obsessive gamers whose preference for the virtual world over the real one is summed up in one jarring statement: "Reality is too fake." Israeli filmmakers Shosh Shlam and Hilla Medalia gained extraordinary access to a three-month military-style rehab program in Beijing, illuminating a process that, while stern, may help set a standard as the wider world comes to grips with the devastating consequences of excessive Internet use."

General
Unique ID
: 178738689672155767999910638291215097110 (0x8677D1C8865354599E03EAC76E5A9D16)
Complete name : pov.web.junkie.mkv
Format
: Matroska
Format version : Version 4 / Version 2
File size
: 1 024 MiB
Duration
: 55mn 40s
Overall bit rate : 2 570 Kbps

Video
ID : 1
Format
: AVC
Format/Info
: Advanced Video Codec
Format profile : [email protected]
Format settings, CABAC : Yes
Format settings, ReFrames : 5 frames
Codec ID
: V_MPEG4/ISO/AVC
Duration
: 55mn 40s
Bit rate
: 2 135 Kbps
Width
: 1 280 pixels
Height
: 720 pixels
Display aspect ratio : 16:9
Frame rate
: 25.000 fps
Color space
: YUV
Chroma subsampling

: 4:2:0
Bit depth
: 8 bits
Scan type
: Progressive
Bits/(Pixel*Frame)

: 0.093
Stream size
: 850 MiB (83%)
Writing library : x264 core 146 r2538 121396c
Encoding settings: cabac=1 / ref=5 / deblock=1:0:0 / analyse=0x3:0x113 / me=umh / subme=8 / psy=1 / psy_rd=1.00:0.00 / mixed_ref=1 / me_range=16 / chroma_me=1 / trellis=1 / 8x8dct=1 / cqm=0 / deadzone=21,11 / fast_pskip=1 / chroma_qp_offset=-2 / threads=12 / lookahead_threads=2 / sliced_threads=0 / nr=0 / decimate=1 / interlaced=0 / bluray_compat=0 / constrained_intra=0 / bframes=3 / b_pyramid=2 / b_adapt=2 / b_bias=0 / direct=3 / weightb=1 / open_gop=0 / weightp=2 / keyint=250 / keyint_min=25 / scenecut=40 / intra_refresh=0 / rc_lookahead=50 / rc=crf / mbtree=1 / crf=20.0 / qcomp=0.60 / qpmin=0 / qpmax=69 / qpstep=4 / ip_ratio=1.40 / aq=1:1.00
Language
: English
Default
: Yes
Forced
: No

Audio
ID : 2
Format
: AC-3
Format/Info
: Audio Coding 3
Mode extension : CM (complete main)
Format settings, Endianness : Big
Codec ID
: A_AC3
Duration
: 55mn 40s
Bit rate mode : Constant
Bit rate
: 384 Kbps
Channel(s)
: 2 channels
Channel positions: Front: L R
Sampling rate : 48.0 KHz
Bit depth
: 16 bits
Compression mode : Lossy
Stream size
: 153 MiB (15%)
Language
: English
Default
: Yes
Forced
: No

Text
ID : 3
Format
: UTF-8
Codec ID
: S_TEXT/UTF8
Codec ID/Info : UTF-8 Plain Text
Language
: English
Default
: No
Forced
: No

Screenshots:

http://i72.fastpic.ru/big/2015/0723/87/b2941647fca82972fbb4e44ae8413187.jpg

http://i72.fastpic.ru/big/2015/0723/c0/eb7d09fa6e448579319c9eba0b2887c0.jpg

http://i69.fastpic.ru/big/2015/0723/55/785205dbbf4d3b35ca74995b7d47d355.jpg

http://i70.fastpic.ru/big/2015/0723/e8/2fcaffb477bfae6225902b1b9ea8f2e8.jpg


DOWNLOAD LINKS:
Buy Premium To Support Me & Get Resumable Support & Max Speed


Links are Interchangeable - No Password - Single Extraction

PBS - POV: Web Junkie (2015) Fast Download


Ad2

 
 
 
Dear visitor, you went to the site as an unregistered user. We encourage you to register or enter the site under your name.
 
   
 
 (Votes #: 0)