2013Zone For Latest Downloads

 
     
 
Legal Downloads » TV Shows » Damien S01E03 (2016)
Menu
Home Applications
Games Movies
Music TV Shows
Torrents Graphics

Sitemap

RSS
 
Advanced Search
Last News
Site Info
Top Contributors:
  1    supper88 32767
  2    admin 32761
  3    Whisky 10081
  4    Shark_ 8911
  5    creativelivenew 8706
  6    whathesupa 2799
  7    candymypost 840
  8    hvnteam 629
  9    vuong87 3


Articles:
  This Hour: 0
  Today: 0
  This Month: 14
  All Time: 515480


Torrents:
  Today: 0
  Yesterday: 0
  All Time: 156743


Membership:
  Registered Today :0
  This Hour:0
  This Month:0
  Total:14
  Banned:1

{online}
{inform_torrent}
Friend:
Full Download Scripts
Torrent Download
Trend
Trend

Search In Site

TV Shows : Damien S01E03 (2016)
 
http://i73.fastpic.ru/big/2016/0324/4f/03cd0e1482cf24934b8e4833c6af174f.jpg

Damien S01E03 (2016)
HDTV 720p | MKV / kb/s | 1280x720 | 41mn | 911 MB | English: AC3, 384 kb/s (6 ch)
Genre: Drama | Horror

After discovering his origins, Damien Thorn must cope with life as the Anti-Christ.
IMDB
MediaInfo
General
Unique ID : 130205486544260954125259315111837763219 (0x61F4AA1FAE46C7525635096CC60F0693)
Complete name : D:\s\Damien.S01E03.720p.HDTV.x264-KILLERS[rarbg]\Damien.S01E03.720p.HDTV.x264-KILLERS.mkv
Format

: Matroska
Format version : Version 4 / Version 2
File size : 911 MiB
Duration : 41mn 33s
Overall bit rate : 3 066 Kbps
Encoded date : UTC 2016-03-22 03:26:26
Writing application : mkvmerge v7.0.0 ('Where We Going') 64bit built on Jun 22 2014 08:19:39
Writing library : libebml v1.3.0 + libmatroska v1.4.1

Video
ID : 1
Format

: AVC
Format/Info : Advanced Video Codec
Format profile :
Format settings, CABAC : Yes
Format settings, ReFrames : 5 frames
Codec ID : V_MPEG4/ISO/AVC
Duration : 41mn 33s
Bit rate : 2 621 Kbps
Width

: 1 280 pixels
Height

: 720 pixels
Display aspect ratio : 16:9
Frame rate mode : Constant
Frame rate : 23.976 fps
Color space : YUV
Chroma subsampling : 4:2:0
Bit depth : 8 bits
Scan type : Progressive
Bits/(Pixel*Frame) : 0.119
Stream size : 779 MiB (85%)
Writing library : x264 core 148 r2665 a01e339
Encoding settings : cabac=1 / ref=5 / deblock=1:0:0 / analyse=0x3:0x113 / me=umh / subme=8 / psy=1 / psy_rd=1.00:0.00 / mixed_ref=1 / me_range=16 / chroma_me=1 / trellis=1 / 8x8dct=1 / cqm=0 / deadzone=21,11 / fast_pskip=1 / chroma_qp_offset=-2 / threads=22 / lookahead_threads=3 / sliced_threads=0 / nr=0 / decimate=1 / interlaced=0 / bluray_compat=0 / constrained_intra=0 / bframes=3 / b_pyramid=2 / b_adapt=2 / b_bias=0 / direct=3 / weightb=1 / open_gop=0 / weightp=2 / keyint=250 / keyint_min=23 / scenecut=40 / intra_refresh=0 / rc_lookahead=50 / rc=crf / mbtree=1 / crf=18.0 / qcomp=0.60 / qpmin=0 / qpmax=69 / qpstep=4 / ip_ratio=1.40 / aq=1:1.00
Language : English
Default : Yes
Forced

: No
Color range : Limited
Matrix coefficients : BT.709

Audio
ID : 2
Format

: AC-3
Format/Info : Audio Coding 3
Mode extension : CM (complete main)
Format settings, Endianness : Big
Codec ID : A_AC3
Duration : 41mn 33s
Bit rate mode : Constant
Bit rate : 384 Kbps
Channel(s) : 6 channels
Channel positions : Front: L C R, Side: L R, LFE
Sampling rate : 48.0 KHz
Compression mode : Lossy
Stream size : 114 MiB (13%)
Default : Yes
Forced

: No


Screenshots

http://i75.fastpic.ru/big/2016/0324/10/350e61645f99108952e9f5b176cfc710.jpg
http://i74.fastpic.ru/big/2016/0324/e2/8fa64d16b763c74adc5520537e7d20e2.jpg
http://i74.fastpic.ru/big/2016/0324/29/235a542c6fb7ffcfe0b0fa37809d9029.jpg


DOWNLOAD LINKS:
Buy Premium To Support Me & Get Resumable Support & Max Speed


Links are Interchangeable - No Password - Single Extraction

Damien S01E03 (2016) Fast Download



 
 
 
Dear visitor, you went to the site as an unregistered user. We encourage you to register or enter the site under your name.
 
   
 
 (Votes #: 0)