2013Zone For Latest Downloads

 
     
 
Legal Downloads » TV Shows » Pablo Picasso (1985)
Menu
Home Applications
Games Movies
Music TV Shows
Torrents Graphics

Sitemap

RSS
 
Advanced Search
Last News
Site Info
Top Contributors:
  1    admin 32767
  2    supper88 32767
  3    Whisky 10081
  4    Shark_ 8911
  5    creativelivenew 8706
  6    whathesupa 2799
  7    candymypost 840
  8    hvnteam 629
  9    vuong87 3


Articles:
  This Hour: 0
  Today: 0
  This Month: 80
  All Time: 517752


Torrents:
  Today: 0
  Yesterday: 0
  All Time: 157307


Membership:
  Registered Today :0
  This Hour:0
  This Month:0
  Total:14
  Banned:1

{online}
{inform_torrent}
Friend:
Full Download Scripts
Torrent Download
Trend
Trend

Search In Site

TV Shows : Pablo Picasso (1985)
 
http://i78.fastpic.ru/big/2016/0704/7d/ebbe27266b346f57984f17667f62897d.jpg
Pablo Picasso (1985)
HDTV-Rip | 704 x 512 | .AVI/XviD 1791 Kbps | 2x~41mn | 1.4 GB
Audio: English, German, French AC-3 192 Kbps, 2 channels
Genre: Documentary

The opening of the Picasso-National Museum in Paris granted a unique chance for Didier Baussy to document the precious collection in the museum in 81-minutes of film.
The museum shows paintings held back by Picasso himself which have been very valuable for his connection to the world and his memories. A sensitive Analysis of these pictures dominantly from the Guernica-phase, grant a deep insight into the history of this artist and man Picasso, a geographical location of the scenes and a glimps of his sources of inspiration
MediaInfo
General
Complete name : Pablo.Picasso.1of2.avi
Format
: AVI
Format/Info
: Audio Video Interleave
File size
: 701 MiB
Duration
: 41mn 6s
Overall bit rate : 2 386 Kbps
Writing application

: VirtualDubMod 1.5.10.1 (build 2366/release)
Writing library : VirtualDubMod build 2366/release
segm
: 
Video
ID : 0
Format
: MPEG-4 Visual
Format profile : Advanced SimpleL5
Format settings, BVOP : No
Format settings, QPel : No
Format settings, GMC : No warppoints
Format settings, Matrix : Default (H.263)
Codec ID
: XVID
Codec ID/Hint : XviD
Duration
: 41mn 6s
Bit rate
: 1 791 Kbps
Width
: 704 pixels
Height
: 512 pixels
Display aspect ratio : 1.375
Frame rate
: 25.000 fps
Color space
: YUV
Chroma subsampling

: 4:2:0
Bit depth
: 8 bits
Scan type
: Interlaced
Scan order
: Bottom Field First
Compression mode : Lossy
Bits/(Pixel*Frame)

: 0.199
Stream size
: 526 MiB (75%)
Writing library : XviD 1.1.0 (UTC 2005-11-22)
Audio #1
ID : 1
Format
: AC-3
Format/Info
: Audio Coding 3
Mode extension : CM (complete main)
Codec ID
: 2000
Duration
: 41mn 6s
Bit rate mode : Constant
Bit rate
: 192 Kbps
Channel(s)
: 2 channels
Channel positions: Front: L R
Sampling rate : 48.0 KHz
Bit depth
: 16 bits
Compression mode : Lossy
Stream size
: 56.4 MiB (8%)
Alignment
: Split accross interleaves
Interleave, duration : 40 ms (1.00 video frame)
Interleave, preload duration : 500 ms
Audio #2
ID : 2
Format
: AC-3
Format/Info
: Audio Coding 3
Mode extension : CM (complete main)
Codec ID
: 2000
Duration
: 41mn 6s
Bit rate mode : Constant
Bit rate
: 192 Kbps
Channel(s)
: 2 channels
Channel positions: Front: L R
Sampling rate : 48.0 KHz
Bit depth
: 16 bits
Compression mode : Lossy
Stream size
: 56.4 MiB (8%)
Alignment
: Split accross interleaves
Interleave, duration : 40 ms (1.00 video frame)
Interleave, preload duration : 500 ms
Audio #3
ID : 3
Format
: AC-3
Format/Info
: Audio Coding 3
Mode extension : CM (complete main)
Codec ID
: 2000
Duration
: 41mn 6s
Bit rate mode : Constant
Bit rate
: 192 Kbps
Channel(s)
: 2 channels
Channel positions: Front: L R
Sampling rate : 48.0 KHz
Bit depth
: 16 bits
Compression mode : Lossy
Stream size
: 56.4 MiB (8%)
Alignment
: Split accross interleaves
Interleave, duration : 40 ms (1.00 video frame)
Interleave, preload duration : 500 ms


http://i59.fastpic.ru/big/2016/0704/e1/83f038c0afa3b3e376173a84fd5e36e1.jpg

http://i58.fastpic.ru/big/2016/0704/bf/2ae78cef1ab52344074a9926485c2ebf.jpg

http://i59.fastpic.ru/big/2016/0704/71/fd45524a41007c32104fd17f410d8c71.jpg

http://i57.fastpic.ru/big/2016/0704/00/4a245039c80c7e7696dfa812efc2fa00.jpg

http://i80.fastpic.ru/big/2016/0704/d9/cd8154c66a9ce6ef5da89b6f5ba619d9.jpg


DOWNLOAD LINKS:
Buy Premium To Support Me & Get Resumable Support & Max Speed


Links are Interchangeable - No Password - Single Extraction

Pablo Picasso (1985) Fast Download



 
 
 
Dear visitor, you went to the site as an unregistered user. We encourage you to register or enter the site under your name.
 
   
 
 (Votes #: 0)