Advertise
onlinemovies


A Streetcar Named Desire [1951] 720p BRRip H264 AC3 - CODY

Published On: 3-09-2012, 00:31

Torrent name:A Streetcar Named Desire [1951] 720p BRRip H264 AC3 - CODY

Seeds:3

Leechers:0

Health: 

Total size:1.84 GB

Torrent added:2012-07-06 11:02:22

Info hash:D12B109F1311D7DBBAB9E95C6160F7E6564A98B2


Description:

General Complete name : A Streetcar Named Desire [1951] 720p BRRip H264 AC3 - CODY.mp4 Format : MPEG-4 Format profile : Base Media Codec ID : isom File size : 1.84 GiB Duration : 2h 4mn Overall bit rate mode : Variable Overall bit rate : 2 107 Kbps Encoded date : UTC 2012-07-04 02:23:44 Video ID : 1 Format : AVC Format/Info : Advanced Video Codec Format profile : [email protected] Format settings, CABAC : Yes Format settings, ReFrames : 5 frames Codec ID : avc1 Codec ID/Info : Advanced Video Coding Duration : 2h 4mn Bit rate mode : Variable Bit rate : 1 720 Kbps Maximum bit rate : 20.0 Mbps Width : 992 pixels Height : 720 pixels Display aspect ratio : 1.378 Frame rate mode : Constant Frame rate : 23.976 fps Color space : YUV Chroma subsampling : 4:2:0 Bit depth : 8 bits Scan type : Progressive Bits/(Pixel*Frame) : 0.100 Stream size : 1.50 GiB (82%) Writing library : x264 core 119 r2106 07efeb4 Encoding settings : rc=2pass Audio ID : 2 Format : AC-3 Format/Info : Audio Coding 3 Mode extension : CM (complete main) Codec ID : ac-3 Duration : 2h 4mn Bit rate mode : Constant Bit rate : 384 Kbps Channel(s) : 1 channel Channel positions : Front: C Sampling rate : 48.0 KHz Bit depth : 16 bits Compression mode : Lossy Stream size : 343 MiB (18%) IMDB link: http://www.imdb.com/title/tt0044081/ Subtitles included : Romanian Please seed at least 1,5:1 . This way this torrent has a chance to survive ! Thanks . Enjoy !!

Download utorrent client from http://www.utorrent.com/ before downloading from below magnet link


Friends: Free Full Download | Torrent Magnet Download | Graphics Download | Watch Online Movies
Dear visitor, you are browsing our website as Guest.
We strongly recommend you to register and login to view hidden contents.

Comments:

Add Comments
 

This site doesn't store any files on its server. We only index and link to content provided by other sites.